<?xml version="1.0" standalone="no"?>
<!DOCTYPE svg PUBLIC "-//W3C//DTD SVG 1.1//EN" "http://www.w3.org/Graphics/SVG/1.1/DTD/svg11.dtd" >
<svg xmlns="http://www.w3.org/2000/svg">
  <metadata>Created by iconfont</metadata>
  <defs>
  <font id="iconfont" horiz-adv-x="1024">
    <font-face
      font-family="iconfont"
      font-weight="400"
      font-stretch="normal"
      units-per-em="1024"
      ascent="896"
      descent="-128"
    />
      <missing-glyph />
      
      <glyph glyph-name="tag" unicode="&#59364;" d="M938 437.2l-29.6 312.6c-1.5 16.2-14.4 29-30.6 30.6L565.2 810h-0.4c-3.2 0-5.7-1-7.6-2.9L88.9 338.8c-3.9-3.9-3.9-10.2 0-14.1l363.8-363.8c1.9-1.9 4.4-2.9 7.1-2.9s5.2 1 7.1 2.9l468.3 468.3c2 2.1 3 5 2.8 8zM459.7 61.3L189.3 331.7 589 731.4 836 708l23.4-247-399.7-399.7zM680 640c-48.5 0-88-39.5-88-88s39.5-88 88-88 88 39.5 88 88-39.5 88-88 88z m0-120c-17.7 0-32 14.3-32 32s14.3 32 32 32 32-14.3 32-32-14.3-32-32-32z"  horiz-adv-x="1024" />
      
      <glyph glyph-name="a-fenleiWithdrawalzhuangtaimoren" unicode="&#58921;" d="M938.666667 129.536c0-121.301333-183.466667-212.821333-426.666667-212.821333S85.333333 8.234667 85.333333 129.536V597.802667C85.333333 719.146667 268.8 810.666667 512 810.666667s426.666667-91.52 426.666667-212.864v-468.266667z m-768 0c0-51.072 132.266667-127.701333 341.333333-127.701333s341.333333 76.629333 341.333333 127.701333v104.32c-76.8-51.114667-198.4-83.029333-341.333333-83.029333-142.933333 0-264.533333 31.914667-341.333333 83.029333v-104.32z m0 338.432v-104.277333c0-51.072 132.266667-127.701333 341.333333-127.701334s341.333333 76.586667 341.333333 127.701334v104.277333c-76.8-51.072-198.4-82.986667-341.333333-82.986667-142.933333 0-264.533333 31.914667-341.333333 82.986667z m341.333333 257.578667c-209.066667 0-341.333333-76.629333-341.333333-127.744 0-51.072 132.266667-127.701333 341.333333-127.701334s341.333333 76.629333 341.333333 127.701334c0 51.114667-132.266667 127.744-341.333333 127.744z"  horiz-adv-x="1024" />
      
      <glyph glyph-name="down1" unicode="&#58998;" d="M928 122.47c16.418 0 29.948 12.365 31.787 28.29 0.179 1.368 0.271 2.764 0.271 4.181v248a8 8 0 0 1-8 8h-48c-8.837 0-16-7.163-16-16v-158.618L614.075 510.306a7.984 7.984 0 0 1-2.306 1.61l-18.241 18.24c-12.497 12.497-32.758 12.497-45.255 0L386.499 368.38 117.225 637.657a8 8 0 0 1-11.314 0l-39.598-39.598a8 8 0 0 1 0-11.314l273.619-273.62a8.022 8.022 0 0 1 1.16-1.465l22.627-22.628c12.497-12.496 32.758-12.496 45.255 0l162.275 162.276L828.087 194.47H688c-8.837 0-16-7.163-16-16v-48a8 8 0 0 1 8-8h248z"  horiz-adv-x="1024" />
      
      <glyph glyph-name="qunzu" unicode="&#59030;" d="M507.904 371.712c-77.824 34.816-133.12 114.688-133.12 206.848 0 124.928 100.352 225.28 225.28 225.28s225.28-100.352 225.28-225.28c0-92.16-55.296-169.984-133.12-206.848 176.128-40.96 307.2-200.704 307.2-389.12 0-12.288-8.192-20.48-20.48-20.48s-20.48 8.192-20.48 20.48c0 198.656-159.744 358.4-358.4 358.4s-358.4-159.744-358.4-358.4c0-12.288-8.192-20.48-20.48-20.48s-20.48 8.192-20.48 20.48c0 190.464 131.072 348.16 307.2 389.12z m-118.784 6.144v-2.048c0-12.288-8.192-20.48-20.48-20.48-169.984 0-307.2-137.216-307.2-307.2 0-12.288-8.192-20.48-20.48-20.48s-20.48 8.192-20.48 20.48c0 159.744 108.544 294.912 253.952 335.872-65.536 34.816-110.592 102.4-110.592 182.272 0 112.64 92.16 204.8 204.8 204.8 12.288 0 20.48-8.192 20.48-20.48s-8.192-20.48-20.48-20.48c-90.112 0-163.84-73.728-163.84-163.84s73.728-163.84 163.84-163.84c12.288 0 20.48-8.192 20.48-20.48v-4.096z m208.896 16.384c102.4 0 184.32 81.92 184.32 184.32s-81.92 184.32-184.32 184.32-184.32-81.92-184.32-184.32 83.968-184.32 184.32-184.32z"  horiz-adv-x="1024" />
      
      <glyph glyph-name="jifen" unicode="&#58934;" d="M517.688889 896c-156.444444 0-284.444444-130.844444-284.444445-290.133333s128-290.133333 284.444445-290.133334 284.444444 130.844444 284.444444 290.133334S674.133333 896 517.688889 896z m0-517.688889c-125.155556 0-227.555556 102.4-227.555556 230.4s102.4 230.4 227.555556 230.4 227.555556-102.4 227.555555-230.4-102.4-230.4-227.555555-230.4zM457.955556 327.111111c14.222222 0 28.444444 8.533333 28.444444 25.6 0 14.222222-17.066667 28.444444-31.288889 31.288889h-2.844444C199.111111 372.622222-2.844444 156.444444 8.533333-99.555556c0-14.222222 19.911111-28.444444 34.133334-28.444444s28.444444 14.222222 25.6 28.444444c-8.533333 224.711111 162.133333 418.133333 384 426.666667h5.688889zM824.888889-108.088889c-105.244444 0-193.422222 51.2-193.422222 116.622222 0 22.755556 8.533333 42.666667 28.444444 62.577778 5.688889 2.844444 11.377778 2.844444 17.066667 0 28.444444-31.288889 85.333333-48.355556 145.066666-48.355555C881.777778 25.6 938.666667 42.666667 967.111111 71.111111c5.688889 5.688889 14.222222 5.688889 19.911111 0 17.066667-19.911111 28.444444-39.822222 28.444445-62.577778 0-68.266667-85.333333-116.622222-190.577778-116.622222z m-150.755556 142.222222c-5.688889-5.688889-11.377778-17.066667-11.377777-25.6 0-39.822222 68.266667-82.488889 162.133333-82.488889 93.866667 0 162.133333 42.666667 162.133333 82.488889 0 11.377778-5.688889 19.911111-11.377778 25.6-36.977778-25.6-93.866667-42.666667-150.755555-42.666666-62.577778 0-116.622222 17.066667-150.755556 42.666666z m150.755556 56.888889c-105.244444 0-193.422222 51.2-193.422222 116.622222 0 68.266667 85.333333 116.622222 193.422222 116.622223 105.244444 0 193.422222-51.2 193.422222-116.622223-2.844444-65.422222-88.177778-116.622222-193.422222-116.622222z m0 201.955556c-93.866667 0-162.133333-42.666667-162.133333-82.488889S731.022222 128 824.888889 128c93.866667 0 162.133333 42.666667 162.133333 82.488889s-68.266667 82.488889-162.133333 82.488889z m0 0M824.888889-8.533333c-105.244444 0-193.422222 51.2-193.422222 116.622222 0 22.755556 8.533333 42.666667 28.444444 62.577778 5.688889 2.844444 11.377778 2.844444 17.066667 0 28.444444-31.288889 85.333333-48.355556 145.066666-48.355556 59.733333 0 116.622222 17.066667 145.066667 48.355556 5.688889 5.688889 14.222222 5.688889 19.911111 0 17.066667-19.911111 28.444444-39.822222 28.444445-62.577778 0-65.422222-85.333333-116.622222-190.577778-116.622222z m-150.755556 145.066666c-5.688889-5.688889-11.377778-17.066667-11.377777-25.6 0-39.822222 68.266667-82.488889 162.133333-82.488889 93.866667 0 162.133333 42.666667 162.133333 82.488889 0 11.377778-5.688889 19.911111-11.377778 25.6-34.133333-25.6-88.177778-42.666667-150.755555-42.666666-62.577778-2.844444-116.622222 14.222222-150.755556 42.666666z m0 0M824.888889 91.022222c-105.244444 0-193.422222 51.2-193.422222 116.622222 0 22.755556 8.533333 42.666667 28.444444 62.577778 5.688889 5.688889 14.222222 2.844444 19.911111-2.844444 5.688889-5.688889 5.688889-17.066667-2.844444-22.755556-8.533333-5.688889-17.066667-19.911111-17.066667-36.977778 0-39.822222 68.266667-82.488889 162.133333-82.488888 93.866667 0 162.133333 42.666667 162.133334 82.488888 0 17.066667-8.533333 31.288889-17.066667 36.977778-5.688889 5.688889-5.688889 17.066667-2.844444 22.755556 5.688889 5.688889 14.222222 11.377778 19.911111 2.844444 17.066667-19.911111 28.444444-39.822222 28.444444-62.577778 2.844444-65.422222-82.488889-116.622222-187.733333-116.622222z m0 0M822.044444-128c-108.088889 0-196.266667 51.2-196.266666 119.466667 0 22.755556 8.533333 45.511111 31.288889 65.422222 5.688889 2.844444 11.377778 2.844444 17.066666 0 31.288889-31.288889 88.177778-48.355556 147.911111-48.355556s119.466667 17.066667 147.911112 48.355556c5.688889 5.688889 14.222222 5.688889 19.911111 0 17.066667-19.911111 31.288889-42.666667 31.288889-65.422222 0-68.266667-88.177778-119.466667-199.111112-119.466667z m-153.6 147.911111c-5.688889-5.688889-11.377778-17.066667-11.377777-28.444444 0-42.666667 71.111111-85.333333 167.822222-85.333334 96.711111 0 167.822222 45.511111 167.822222 85.333334 0 11.377778-5.688889 19.911111-11.377778 28.444444-36.977778-28.444444-93.866667-45.511111-153.6-45.511111-68.266667 2.844444-122.311111 19.911111-159.288889 45.511111z m153.6 59.733333c-108.088889 0-196.266667 51.2-196.266666 119.466667 0 68.266667 88.177778 119.466667 196.266666 119.466667 108.088889 0 196.266667-51.2 196.266667-119.466667 2.844444-68.266667-85.333333-119.466667-196.266667-119.466667z m0 204.8c-96.711111 0-167.822222-45.511111-167.822222-85.333333 0-42.666667 71.111111-85.333333 167.822222-85.333333 96.711111 0 167.822222 45.511111 167.822223 85.333333 0 42.666667-68.266667 85.333333-167.822223 85.333333z m0 0M822.044444-22.755556c-108.088889 0-196.266667 51.2-196.266666 119.466667 0 22.755556 8.533333 45.511111 31.288889 65.422222 5.688889 2.844444 11.377778 2.844444 17.066666 0 31.288889-31.288889 88.177778-48.355556 147.911111-48.355555s119.466667 17.066667 147.911112 48.355555c5.688889 5.688889 14.222222 5.688889 19.911111 0 17.066667-19.911111 31.288889-42.666667 31.288889-65.422222 0-68.266667-88.177778-119.466667-199.111112-119.466667z m-153.6 147.911112c-5.688889-5.688889-11.377778-17.066667-11.377777-28.444445 0-42.666667 71.111111-85.333333 167.822222-85.333333 96.711111 0 167.822222 45.511111 167.822222 85.333333 0 11.377778-5.688889 19.911111-11.377778 28.444445-36.977778-28.444444-91.022222-45.511111-153.6-45.511112-68.266667 0-122.311111 17.066667-159.288889 45.511112z m0 0M822.044444 79.644444c-108.088889 0-196.266667 51.2-196.266666 119.466667 0 22.755556 8.533333 45.511111 31.288889 65.422222 5.688889 5.688889 14.222222 2.844444 19.911111-2.844444 5.688889-5.688889 5.688889-17.066667-2.844445-22.755556-8.533333-5.688889-17.066667-19.911111-17.066666-36.977777 0-42.666667 71.111111-85.333333 167.822222-85.333334 96.711111 0 167.822222 45.511111 167.822222 85.333334 0 17.066667-8.533333 31.288889-17.066667 36.977777-5.688889 5.688889-5.688889 17.066667-2.844444 22.755556 5.688889 5.688889 14.222222 11.377778 19.911111 2.844444 17.066667-19.911111 31.288889-42.666667 31.288889-65.422222-2.844444-68.266667-91.022222-119.466667-201.955556-119.466667z m0 0"  horiz-adv-x="1024" />
      
      <glyph glyph-name="kuaidigongsi" unicode="&#58956;" d="M896 426.666667h-128v-42.666667h128v42.666667z m-256 298.666666H128v-597.333333h85.333333v4.266667c12.8 42.666667 51.2 76.8 98.133334 81.066666h8.533333c51.2 0 89.6-34.133333 102.4-81.066666v-4.266667H597.333333v4.266667c4.266667 25.6 21.333333 42.666667 38.4 59.733333L640 725.333333z m149.333333-170.666666H682.666667v-341.333334H708.266667c51.2 0 89.6-34.133333 102.4-81.066666v-4.266667h85.333333v213.333333h-128c-25.6 0-42.666667 17.066667-42.666667 42.666667v42.666667c0 25.6 17.066667 42.666667 42.666667 42.666666h128c-12.8 46.933333-55.466667 85.333333-106.666667 85.333334z m-85.333333-384c-34.133333 0-64-29.866667-64-64s29.866667-64 64-64 64 29.866667 64 64-29.866667 64-64 64z m-384 0c-34.133333 0-64-29.866667-64-64S285.866667 42.666667 320 42.666667 384 72.533333 384 106.666667 354.133333 170.666667 320 170.666667zM640 768c25.6 0 42.666667-17.066667 42.666667-42.666667v-128h106.666666c81.066667 0 149.333333-68.266667 149.333334-149.333333V128c0-25.6-17.066667-42.666667-42.666667-42.666667h-89.6v-4.266666c-12.8-42.666667-51.2-76.8-98.133333-81.066667h-8.533334c-51.2 0-89.6 34.133333-102.4 81.066667V85.333333H422.4v-4.266666c-12.8-42.666667-51.2-76.8-98.133333-81.066667h-8.533334c-51.2 0-89.6 34.133333-102.4 81.066667V85.333333H128c-25.6 0-42.666667 17.066667-42.666667 42.666667V725.333333c0 25.6 17.066667 42.666667 42.666667 42.666667h512z"  horiz-adv-x="1024" />
      
      <glyph glyph-name="tianmao" unicode="&#58922;" d="M884.075842 895.989336H138.638906A137.99648 137.99648 0 0 1 0.002566 757.139709v-743.090782a137.99648 137.99648 0 0 1 138.63634-138.209767h746.503369a137.99648 137.99648 0 0 1 138.63634 138.209767V757.139709a137.99648 137.99648 0 0 1-139.702773 138.849627zM927.373037-118.18881299999998a142.902074 142.902074 0 0 0-40.311182-5.972027 155.059414 155.059414 0 0 1 40.311182 5.972027zM0.002566 757.139709z m95.339144-874.475375a157.618854 157.618854 0 0 1 42.657336-5.972027 157.618854 157.618854 0 0 0-42.657336 5.972027zM935.264644-73.18532400000004a112.188792 112.188792 0 0 1-106.643338 112.188792 7.03846 7.03846 0 0 1-5.972027 2.132867 6.825174 6.825174 0 0 1-5.972027-2.132867h13.010487c17.062934-7.891607 30.073421-55.027963 30.073421-112.188792a355.54889 355.54889 0 0 0-4.052447-50.975516h30.286709a124.772706 124.772706 0 0 1 40.097895 5.972027 103.017465 103.017465 0 0 1 8.95804 45.003489zM206.890642 39.003468a9.384614 9.384614 0 0 1-11.944053 0zM193.880155 39.003468a112.188792 112.188792 0 0 1-106.643338-112.188792 106.643338 106.643338 0 0 1 11.090907-45.003489 127.972006 127.972006 0 0 1 40.097895-5.972027h30.286708a391.807625 391.807625 0 0 0-3.83916 50.975516c-1.066433 57.160829 11.944054 104.297185 29.006988 112.188792z m621.94395 0a112.188792 112.188792 0 0 1-106.643339-112.188792 97.045438 97.045438 0 0 1 13.010488-50.975516h68.251736a389.248185 389.248185 0 0 0-4.052446 50.975516c0 57.160829 12.157341 104.297185 29.220274 112.188792zM533.219258-50.15036299999997h-42.657335c-13.223774 0-17.062934-5.972027-11.090908-14.930067l13.010488-17.062934c4.052447-5.972027 11.090907-14.930067 13.010487-18.982515s2.132867-1.91958 6.185314-1.91958a8.744754 8.744754 0 0 1 5.972027 1.91958c4.052447 4.052447 8.104894 13.010487 13.010487 18.982515l11.090907 17.062934c8.104894 8.95804 4.052447 14.930067-8.95804 14.930067zM206.890642 39.003468c17.062934-7.891607 32.206288-55.027963 32.206289-112.188792A355.54889 355.54889 0 0 0 234.61791-124.16084000000001h68.465024a106.643338 106.643338 0 0 1 13.010487 50.975516 117.307672 117.307672 0 0 1-109.202779 112.188792z m720.482395-157.192281A154.419554 154.419554 0 0 1 981.121279-88.11539100000005a203.262203 203.262203 0 0 0-53.108382-30.073422zM47.138921-88.11539100000005A139.91606 139.91606 0 0 0 0.002566 14.048927000000049a133.304173 133.304173 0 0 1 47.136355-102.164318z m48.202789-30.073422a121.146832 121.146832 0 0 0-51.188802 30.073422 211.367097 211.367097 0 0 1 51.188802-30.073422zM977.495406 213.47197000000006c-39.031462 22.821674-81.688797-19.195801-87.234251-28.153842-53.321669-61.213276-112.615365-135.223753-219.045417-135.223753h-319.930015c-106.643338 0-163.804168 76.143344-219.045417 136.0769-7.67832 8.104894-46.923069 51.188802-87.020965 27.300695-36.258735-21.328668-42.657335-88.087398-45.216775-132.23774v-70.171317a133.304173 133.304173 0 0 1 47.136355-101.951031 162.097874 162.097874 0 0 1 51.40209-30.073422 103.870612 103.870612 0 0 0-11.090908 45.003489 112.402079 112.402079 0 0 0 106.643339 112.188792 7.67832 7.67832 0 0 0 5.972027 1.91958 7.891607 7.891607 0 0 0 6.185313-1.91958 112.615365 112.615365 0 0 0 106.643339-112.188792 98.325158 98.325158 0 0 0-13.010487-51.188802h421.454473a106.643338 106.643338 0 0 0-13.010487 51.188802 112.402079 112.402079 0 0 0 106.643338 112.188792 7.891607 7.891607 0 0 0 6.185314 1.91958 7.465034 7.465034 0 0 0 5.972027-1.91958 112.402079 112.402079 0 0 0 106.643338-112.188792 106.643338 106.643338 0 0 0-11.090907-45.003489 151.860114 151.860114 0 0 1 53.321669 30.073422 133.304173 133.304173 0 0 1 45.216776 100.031451v71.024464c0 46.069922-7.03846 112.188792-42.657336 133.090886zM543.457019-65.08042999999998l-10.877621-15.143354a79.129357 79.129357 0 0 1-13.223774-18.982515 10.23776 10.23776 0 0 0-7.891607-4.052446 9.171327 9.171327 0 0 0-6.185314 2.132866c-3.83916 4.052447-7.891607 13.010487-13.010487 18.982515l-13.010487 17.062934c-5.972027 7.891607 0 14.930067 11.090907 14.930067h42.657335c13.010487 0 17.062934-5.972027 10.877621-14.930067zM828.834592 39.003468h-13.010487c-17.062934-7.891607-30.073421-55.027963-30.073422-112.188792A391.807625 391.807625 0 0 1 789.16327-124.16084000000001h66.332157a355.54889 355.54889 0 0 1 4.052447 50.975516c0 57.160829-14.076921 104.297185-31.139855 112.188792z m-621.94395 0h-13.010487c-17.062934-7.891607-32.206288-55.027963-32.206288-112.188792a389.248185 389.248185 0 0 1 4.052447-50.975516h66.332156a355.54889 355.54889 0 0 1 4.052447 50.975516c0 57.160829-12.157341 104.297185-29.220275 112.188792zM341.261249 542.786599h146.741234v38.178315h-151.433541v80.409077h136.71676V702.111746H161.673867v-38.178315H298.603914v-81.048937H146.7438v-37.965028h146.527947c-14.930067-57.160829-61.213276-106.643338-146.527947-155.272701l18.982514-34.125869c53.321669 30.073421 119.653826 74.223764 153.779694 142.262214a216.059404 216.059404 0 0 1 34.125868-51.188803 447.902021 447.902021 0 0 1 119.653826-91.073411l18.982514 34.125869c-89.367118 46.923069-136.71676 95.979005-151.646827 153.139834z m339.552389 66.11887h38.178316v31.139854h83.39509v-31.993001h38.178315v31.993001h38.178316v39.031462h-38.818176V702.111746h-38.178315v-25.167827h-83.39509V702.111746h-38.178316v-25.167827h-36.258735v-37.965029h36.258735z m-78.062923 73.79719a93.632851 93.632851 0 0 1-74.223764 19.195801h-4.052447v-38.178315h5.972027a96.405578 96.405578 0 0 0 47.349643-7.891607 23.674821 23.674821 0 0 0 5.972026-18.982515v-13.010487l-59.293696-36.045448 18.982515-34.125869 40.311181 22.395101v-42.657335l-59.293696-36.045448 19.195801-34.125869 40.097895 23.034961v-31.993001a50.335656 50.335656 0 0 0-11.090907-30.073422 202.622343 202.622343 0 0 0-49.269222-40.097895l19.195801-34.125868a191.958009 191.958009 0 0 1 59.293696 49.269222 97.898585 97.898585 0 0 1 18.982514 55.027963v179.587382a76.783204 76.783204 0 0 1-18.129367 49.055935z m40.311182-100.031452v-174.255215a56.520969 56.520969 0 0 1 57.160829-57.160829h119.653826a56.520969 56.520969 0 0 1 57.160829 57.160829v174.468502z m98.325158-191.958009h-40.097896a18.555941 18.555941 0 0 0-19.1958 18.982514v38.391602h59.293696z m0 96.192291H682.519932v57.80069h59.293696z m98.538444-79.129357a18.342654 18.342654 0 0 0-18.982514-18.982514H780.631803v59.293696h59.293696z m0 79.129357H780.631803v57.80069h59.293696z"  horiz-adv-x="1026" />
      
      <glyph glyph-name="weidian" unicode="&#58992;" d="M453.226667 246.090667c0 12.490667 8.384 16.64 16.789333 16.64h209.952c8.394667 0 16.789333-8.298667 16.789333-16.64v-99.744c0-8.298667-8.394667-16.597333-16.789333-16.597334H470.016c-8.405333 0-16.8 8.288-16.8 16.597334V246.08zM830.933333 894.944c106.048 0 192-85.962667 192-192v-637.898667c0-106.026667-85.952-192-192-192H193.066667c-106.037333 0-192 85.973333-192 192V702.944c0 106.037333 85.962667 192 192 192H830.933333zM520.416 736.576c-20.992-8.298667-29.397333-29.098667-29.397333-49.888 0-20.757333 12.586667-37.397333 29.397333-49.866667 16.8-12.458667 41.994667-12.458667 58.794667 0 16.778667 8.298667 29.376 29.109333 29.376 49.866667 0 20.8-12.597333 37.429333-29.376 49.888-16.8 12.469333-42.005333 12.469333-58.794667 0z m281.333333-332.512h-0.010666v49.866667h-205.76v54.048h-92.373334v-195.36H373.44v-224.48h335.936c37.781333 0 67.168 29.088 67.168 66.549333V312.629333H595.978667V404.053333h205.76z m8.394667 149.621333v41.578667c0 8.298667-8.394667 12.458667-12.597333 12.458667h-529.066667c-8.394667 0-12.586667-8.32-12.586667-12.458667v-332.533333c0-58.197333-12.608-108.053333-37.813333-132.981334-4.192 0-4.192 0-4.192-4.170666v-54.058667c0-8.288 4.192-8.288 12.586667-4.138667 121.781333 41.568 117.578667 224.426667 117.578666 224.426667V532.906667c0 4.16 4.202667 8.298667 12.586667 8.298666h440.512c8.394667 0 12.992 8.32 12.992 12.469334z"  horiz-adv-x="1024" />
      
      <glyph glyph-name="jd" unicode="&#58885;" d="M81.92 896h860.16C987.52 896 1024 859.52 1024 814.08v-860.16c0-45.44-36.48-81.92-81.92-81.92H81.92C36.48-128 0-91.52 0-46.08V814.08C0 859.52 36.48 896 81.92 896zM384 657.28H308.48v-329.6c1.28-26.88-1.28-53.12-8.32-78.72-3.2-15.36-12.8-28.8-25.6-37.12-14.72-11.52-32-19.84-50.56-24.32l-69.12-8.32v-68.48h6.4l97.28 12.8c26.24 7.68 50.56 19.84 72.32 35.84 35.2 31.36 53.76 78.72 53.76 142.08L384 657.28zM870.4 384c0.64 40.32-6.4 80.64-20.48 119.04-12.16 32.64-32 62.08-57.6 85.76-51.84 44.8-126.08 67.84-223.36 67.84H458.24v-545.28H569.6c97.28 0 171.52 23.68 223.36 69.76 26.24 23.04 46.72 52.48 58.24 85.12 13.44 37.12 20.48 77.44 19.2 117.76z m-87.68-89.6c-7.04-24.32-20.48-46.72-39.04-64-37.12-35.2-92.8-51.84-165.76-51.84h-48V590.72h48c72.96 0 128.64-17.28 165.76-52.48v1.28c18.56-17.28 32-39.04 39.04-64 10.24-29.44 15.36-60.8 14.72-91.52 0.64-30.72-4.48-60.8-14.72-89.6z"  horiz-adv-x="1024" />
      
      <glyph glyph-name="taobao" unicode="&#60286;" d="M849.92 844.8H174.08c-67.8656 0-122.88-55.0144-122.88-122.88v-675.84c0-67.8656 55.0144-122.88 122.88-122.88h675.84c67.8656 0 122.88 55.0144 122.88 122.88V721.92c0 67.8656-55.0144 122.88-122.88 122.88zM311.31136 611.11296c30.53568 0 55.24992-22.25664 55.24992-49.536 0-27.264-24.71424-49.49504-55.24992-49.49504-30.4896 0-55.19872 22.22592-55.19872 49.49504 0 27.27424 24.71424 49.536 55.19872 49.536z m46.08-297.40544c-14.57152-45.14816-10.95168-28.40576-68.80256-154.07616L204.8 211.88096s93.44 85.04832 112.68096 123.88864c20.29056 41.00608-22.44096 62.84288-22.44096 62.84288l-64.16896 40.00768 34.6624 53.4528c48.42496-35.93728 52.04992-38.95808 84.736-71.67488 25.2416-25.344 22.06208-60.544 7.12192-106.69056z m455.50592-58.64448c-16.33792-153.28256-215.76704-96.35328-215.76704-96.35328l10.81344 43.89888 46.16192-9.94816c85.4784-5.43232 77.13792 69.24288 77.13792 69.24288V478.91456c0.7168 82.37056-77.48096 90.9312-217.78944 40.73984l32.6912-8.82688c-2.87232-9.6512-13.4912-24.65792-26.9824-41.14432h187.72992v-37.95968h-105.68192v-47.52896h105.22624v-37.95968h-105.22112v-79.6672c15.70304 5.2736 30.44864 12.3904 43.21792 21.85728l-9.32864 34.75968 49.73056 15.43168 41.27232-101.3248-61.12768-25.41056-10.88 40.3968c-27.2384-20.92544-84.0704-51.14368-183.11168-48.47616-105.89184-2.70848-78.7456 119.38816-78.7456 119.38816l2.70848 1.41824h74.40896c-0.4864-15.7696-6.89664-41.34912 1.90976-55.27552 7.14752-11.42784 25.8048-13.4144 37.67808-13.94688 1.32096-0.1792 2.7392-0.1792 4.12672-0.2304v91.07968H405.0944v37.95968h107.9808v47.53408h-27.7248c-24.30464-25.7792-46.4384-47.11936-46.4384-47.11936l-32.5888 28.50304c23.14752 24.34048 46.30528 62.85312 60.54912 88.66304a1370.25536 1370.25536 0 0 1-35.88608-15.22688 554.7264 554.7264 0 0 0-41.28256-46.29504c0.56832-0.86016-53.24288 30.14656-53.24288 30.14656 55.61856 47.5136 86.8096 149.22752 86.8096 149.22752l77.4144-21.62688s-6.50752-15.08864-19.6352-38.11328c309.74976 87.7056 327.72096-53.77024 327.72096-53.77024s20.40832-97.72544 4.12672-251.05408z"  horiz-adv-x="1032" />
      
      <glyph glyph-name="a-1688" unicode="&#59311;" d="M170.675 896h682.65C967.117 896 1024 839.117 1024 725.325v-682.65C1024-71.117 967.117-128 853.325-128h-682.65C56.883-128 0-71.117 0 42.675v682.65C0 839.117 56.883 896 170.675 896zM464.589 128.18c11.136 0 19.968-1.409 26.419-4.097v-26.137l-3.686 1.894a48.128 48.128 0 0 1-20.813 4.48 32.717 32.717 0 0 1-27.418-13.491c-6.886-8.986-10.189-20.66-10.189-34.816h0.564c7.116 10.803 17.612 16.256 31.462 16.256 12.442 0 22.22-4.173 29.645-12.749 7.296-8.55 10.905-19.635 10.905-33.408 0-15.027-4.71-27.392-14.233-37.043a48.969 48.969 0 0 0-36.403-14.643c-16.896 0-29.901 6.195-39.066 18.432-8.909 12.185-13.517 29.03-13.517 50.508 0 25.114 5.888 45.67 17.485 61.21 11.776 15.718 27.98 23.603 48.845 23.603z m106.726-0.052c9.088 0 17.152-1.613 24.576-5.018 6.912-2.995 12.8-7.859 17.101-14.054 4.02-5.888 6.144-12.902 6.144-20.07 0-6.912-2.253-13.338-6.707-19.2a45.145 45.145 0 0 0-18.176-14.055c9.216-3.225 16.512-8.192 21.504-14.899a36.877 36.877 0 0 0 7.757-23.424c0.256-12.032-5.197-23.475-14.72-30.746-9.805-8.012-22.375-11.93-37.888-11.93-15.565 0-28.314 3.918-37.914 11.93a37.555 37.555 0 0 0-14.285 30.31c0 8.705 2.509 16.282 7.424 23.04a42.49 42.49 0 0 0 21.53 14.746 46.26 46.26 0 0 0-17.51 14.464 35.43 35.43 0 0 0-0.129 39.63 40.443 40.443 0 0 0 16.948 14.13c7.27 3.328 15.36 5.146 24.32 5.146z m122.65 0c9.113 0 17.229-1.613 24.653-5.018a40.248 40.248 0 0 0 17.075-14.054c4.019-5.888 6.144-12.902 6.144-20.07 0-6.912-2.253-13.338-6.759-19.2a45.29 45.29 0 0 0-18.15-14.055c9.216-3.225 16.486-8.192 21.555-14.899a37.207 37.207 0 0 0 7.68-23.424 37.567 37.567 0 0 0-14.669-30.746c-9.804-8.012-22.425-11.93-37.939-11.93s-28.262 3.918-37.888 11.93a37.555 37.555 0 0 0-14.259 30.31 38.144 38.144 0 0 0 7.373 23.04c5.427 7.092 12.979 12.238 21.555 14.746a46.26 46.26 0 0 0-17.485 14.464 35.43 35.43 0 0 0-0.128 39.63 40.458 40.458 0 0 0 16.896 14.13c7.322 3.328 15.437 5.146 24.346 5.146z m-311.91 0.742v-151.91h-31.079V93.9a54.483 54.483 0 0 0-15.667-8.96 67.925 67.925 0 0 0-18.33-4.914v26.547a134.118 134.118 0 0 1 45.312 22.297h19.763z m189.388-86.604a20.147 20.147 0 0 1-15.667-6.477 21.965 21.965 0 0 1-6.17-16.128c0-6.912 1.972-12.493 5.888-16.563a20.531 20.531 0 0 1 15.821-6.196 21.094 21.094 0 0 1 15.667 6.196 22.886 22.886 0 0 1 6.144 16.537 22.733 22.733 0 0 1-6.144 16.154 20.66 20.66 0 0 1-15.539 6.477z m122.65 0a20.147 20.147 0 0 1-15.667-6.477 21.965 21.965 0 0 1-6.144-16.128c0-6.912 1.996-12.493 5.888-16.563a20.531 20.531 0 0 1 15.795-6.196 21.094 21.094 0 0 1 15.667 6.196 22.86 22.86 0 0 1 6.195 16.537 22.733 22.733 0 0 1-6.195 16.154 20.66 20.66 0 0 1-15.54 6.477zM450.534 49.1a18.995 18.995 0 0 1-14.924-6.58 25.037 25.037 0 0 1-5.658-13.772l-0.102-3.072c0-7.706 1.97-14.183 5.76-19.507a17.571 17.571 0 0 1 15.104-8.013 17.74 17.74 0 0 1 14.976 7.424 30.324 30.324 0 0 1 5.452 18.534c0 16.717-6.86 24.986-20.608 24.986z m121.472 56.473a15.77 15.77 0 0 1-12.748-5.888 20.634 20.634 0 0 1-5.018-14.336c0-5.504 1.715-10.112 5.018-13.9a15.872 15.872 0 0 1 12.748-5.76 16.46 16.46 0 0 1 12.57 5.606 19.814 19.814 0 0 1 5.146 14.08 21.35 21.35 0 0 1-4.967 14.285 15.949 15.949 0 0 1-12.749 5.888z m122.701 0a15.77 15.77 0 0 1-12.749-5.888 21.274 21.274 0 0 1-5.017-14.336 20.224 20.224 0 0 1 5.017-13.9 15.872 15.872 0 0 1 12.75-5.76 16.46 16.46 0 0 1 12.569 5.606 19.814 19.814 0 0 1 5.145 14.08 21.376 21.376 0 0 1-5.017 14.285 15.949 15.949 0 0 1-12.698 5.888zM853.325 896c24.371 0 46.131-2.611 65.28-7.834L896.794 875.7l45.49-34.662C820.635 821.734 727.86 800.896 641.588 776.73l-27.059-7.757-26.778-7.987-26.65-8.218-26.7-8.5-40.448-13.26-27.494-9.216 20.48-49.818-75.11-69.324 3.174-0.666 11.955-2.688 8.576-1.74 10.163-1.767 7.603-1.101 8.269-1.024 8.858-0.87 9.42-0.692 9.984-0.435 10.496-0.153c50.1 0 116.07 10.88 184.244 54.067l7.296 4.736 2.278 2.15a54.298 54.298 0 0 1-9.958 10.035l-7.015 5.53-8.09 6.093c39.425-4.122 64.103-34.355 61.901-67.507l-0.41-3.968h-18.175c0 7.424-1.536 14.13-3.226 20.147l-2.56 8.499a111.693 111.693 0 0 0-1.1 3.84c-101.889-71.68-221.031-83.891-321.767-52.557l-8.346 2.714v-86.656c-52.352-15.181-138.93-69.376-138.93-119.194 4.607-23.859 15.974-32.563 29.618-39.014 75.904-41.882 217.088-34.663 423.501 21.657l-20.89-10.01-20.94-9.727c-97.92-44.698-199.501-78.592-342.963-84.275-197.812 3.942-241.357 118.502-170.727 247.5l5.888 10.343c5.12 8.653 10.752 17.357 16.87 26.086C250.523 682.138 398.875 807.731 636.238 890.163L653.337 896h199.988z m170.7-267.648v-121.549l-19.507-22.451a1683.738 1683.738 0 0 1-35.916-42.752l-8.064-10.163c-2.868-3.584-5.556-7.091-8.013-10.496l-4.634-6.63a123.404 123.404 0 0 1-4.045-6.35l-3.404-6.041c-14.413-27.392-7.399-44.083 33.792-42.24l4.53 0.256a1202.38 1202.38 0 0 1 45.262 3.66v-76.082l-14.004-3.175-13.696-2.867c-4.505-0.896-8.96-1.74-13.388-2.56l-13.082-2.176c-4.3-0.666-8.55-1.28-12.723-1.818l-12.365-1.459c-79.053-8.243-133.197 8.115-134.528 66.97 2.304 26.01 11.418 52.019 34.202 82.355 15.36 21.12 34.56 43.469 54.707 66.125l20.403 22.733 49.664 54.4 13.312 14.796 20.66 23.348 13.9 16.05 6.912 8.116z"  horiz-adv-x="1024" />
      
      <glyph glyph-name="gantanhao" unicode="&#58894;" d="M512 891.87328c280.49408 0 507.87328-227.3792 507.87328-507.87328 0-280.49408-227.3792-507.87328-507.87328-507.87328C231.50592-123.87328 4.12672 103.50592 4.12672 384 4.12672 664.49408 231.50592 891.87328 512 891.87328zM512 210.03264c-42.47552 0-76.91264-34.42688-76.91264-76.91264 0-42.47552 34.43712-76.91264 76.91264-76.91264 42.47552 0 76.91264 34.43712 76.91264 76.91264C588.91264 175.60576 554.47552 210.03264 512 210.03264zM509.78816 270.16192c36.58752 0 66.24256 29.66528 66.24256 66.24256l0 309.1456c0 36.58752-29.65504 66.24256-66.24256 66.24256-36.58752 0-66.24256-29.66528-66.24256-66.24256l0-309.1456C443.5456 299.81696 473.20064 270.16192 509.78816 270.16192z"  horiz-adv-x="1024" />
      
      <glyph glyph-name="qiehuan1" unicode="&#59351;" d="M512 832c247.424 0 448-200.576 448-448S759.424-64 512-64 64 136.576 64 384 264.576 832 512 832z m0-64c-212.077 0-384-171.923-384-384s171.923-384 384-384 384 171.923 384 384-171.923 384-384 384z m228.502-423.5c17.673 0 32-14.327 32-32 0-17.496-14.042-31.713-31.471-31.996l-0.53-0.004H361.758l45.372-45.37c12.496-12.496 12.498-32.758 0-45.254-12.371-12.372-32.353-12.497-44.877-0.373l-0.377 0.372-99 98.994c-0.176 0.177-0.35 0.355-0.522 0.534-6.071 5.825-9.851 14.02-9.851 23.097 0 17.496 14.042 31.713 31.47 31.996l0.53 0.004h456z m-77.754 233.997l0.377-0.372 99-98.994c0.176-0.177 0.35-0.355 0.522-0.534 6.071-5.825 9.851-14.02 9.851-23.097 0-17.496-14.042-31.713-31.47-31.996l-0.53-0.004h-456c-17.673 0-32 14.327-32 32 0 17.496 14.042 31.713 31.471 31.996l0.53 0.004h378.744l-45.372 45.37c-12.496 12.496-12.498 32.758 0 45.254 12.371 12.372 32.353 12.497 44.877 0.373z"  horiz-adv-x="1024" />
      
      <glyph glyph-name="dunpai" unicode="&#58884;" d="M888.49 673.314v31.54l-65.672 0.955h-0.205a465.715 465.715 0 0 0-144.315 31.334c-77.005 31.198-126.294 66.765-126.703 67.107l-39.8 28.672-39.185-28.468c-2.048-1.501-49.903-36.044-126.908-67.31a447.42 447.42 0 0 0-144.52-31.335l-65.877-0.956v-378.88c0-87.04 49.834-184.661 137.01-267.81 37.547-35.84 79.258-66.355 120.833-88.2 43.28-22.733 84.24-34.612 118.852-34.612 34.406 0 75.776 12.152 119.603 35.158a547.977 547.977 0 0 1 120.013 87.654 515.209 515.209 0 0 1 96.188 122.88c27.102 49.562 40.823 98.304 40.823 144.999l-0.136 347.204zM510.09 752.572l1.706 1.365 1.775-1.365c5.803-4.165 59.529-41.848 140.356-74.752 79.19-32.086 153.6-35.635 167.663-36.045l2.594-0.068 0.205-315.734c0.137-69.495-42.598-150.186-117.077-221.457C641.57 41.711 563.13-0.478 512-0.478c-23.689 0-55.57 9.899-89.702 27.785a478.822 478.822 0 0 0-105.609 77.278C242.21 175.787 199.475 256.478 199.475 326.11V641.775l2.73 0.136c3.278 0 82.604 1.502 167.664 35.977a739.942 739.942 0 0 1 140.22 74.615v0.069zM713.318 527.36a32.222 32.222 0 0 1-45.329 0L449.195 308.565l-93.184 93.116a32.222 32.222 0 0 1-45.33 0 32.222 32.222 0 0 1 0-45.26l115.85-115.85a32.29 32.29 0 0 1 45.328 0L713.32 482.1a32.222 32.222 0 0 1 0 45.33z"  horiz-adv-x="1024" />
      
      <glyph glyph-name="a-16881" unicode="&#59808;" d="M551.936 220.818286c0.512 15.652571 7.094857 32.841143 20.187429 51.565714 11.702857 18.212571 28.306286 36.352 44.982857 56.100571 25.819429 29.769143 89.453714 99.035429 111.177143 141.970286 4.096 8.045714 6.582857 15.652571 7.606857 22.235429 2.486857 38.4-46.518857 53.613714-119.296 73.801143l-14.116572-8.630858 27.282286-22.162285c-122.806857-21.796571-196.608-44.544-286.061714-75.849143l12.653714-31.817143-44.982857-43.958857c7.606857-1.536 85.942857-27.794286 166.765714 28.745143l0.512 0.512 1.024 1.024a64.512 64.512 0 0 1-14.628571 13.897143c24.210286-1.462857 38.912-13.312 36.352-44.690286H490.788571c0.512 0-0.804571 14.921143-2.852571 20.48a209.993143 209.993143 0 0 0-197.412571-30.646857v-54.564572c-32.475429-10.605714-84.114286-43.958857-84.114286-75.776 2.048-15.652571 9.289143-21.211429 16.896-25.307428 68.681143-38.838857 254.537143 14.189714 253.952 14.189714-66.633143-34.377143-132.973714-61.659429-230.985143-65.682286-129.901714 2.56-148.626286 88.941714-88.502857 178.907429 58.148571 90.916571 149.577143 171.812571 295.643428 223.305143 42.422857 15.213714 104.594286 31.890286 164.717715 33.353143 86.454857 0 170.276571-25.746286 164.790857-109.129143-4.096-64.146286-93.988571-152.064-142.555429-216.795429-21.211429-27.794286-24.722286-46.957714 11.117715-44.470857 126.829714 8.118857 243.565714 52.077714 351.232 98.011429-73.801143-49.005714-448.219429-235.446857-450.779429-108.617143M512 896a512 512 0 1 1 0.073143-1023.926857A512 512 0 0 1 512 896"  horiz-adv-x="1024" />
      
      <glyph glyph-name="shuangjiantou" unicode="&#58881;" d="M0 896h469.504l469.674667-512L469.333333-128H0l469.504 512L0 896z m938.154667 0h469.504L1877.333333 384 1407.829333-128H938.154667L1408 384 938.154667 896z"  horiz-adv-x="1877" />
      
      <glyph glyph-name="a-Upperright-line" unicode="&#59959;" d="M129.7 57.6l54.6-33.3a3.9 3.9 0 0 1 5.5 1.3l208.7 339.5 185.2-101.5a36 36 0 0 1 48.3 13.2l183.7 311.5 68.2-47.4a4 4 0 0 1 6.3 3.1l6.3 220.2a4 4 0 0 1-5.5 3.8l-204.3-82.4a4 4 0 0 1-0.7-7l70.5-49-168.8-286.1L403 444.7a35.9 35.9 0 0 1-48-12.7L128.4 63.1a4 4 0 0 1 1.3-5.5z"  horiz-adv-x="1024" />
      
      <glyph glyph-name="14CIRCLE" unicode="&#58946;" d="M512-128A512 512 0 1 0 512 896a512 512 0 0 0 0-1024zM512 800a416 416 0 1 1 0-832 416 416 0 0 1 0 832z m176-640a47.68 47.68 0 0 0-33.92 14.08L512 316.096 369.92 174.08a48 48 0 0 0-67.84 67.84L444.096 384 302.08 526.08a48 48 0 0 0 67.84 67.84L512 451.904l142.08 142.016a48 48 0 0 0 67.84-67.84L579.904 384l142.016-142.08a48 48 0 0 0-33.92-81.92z"  horiz-adv-x="1024" />
      
      <glyph glyph-name="xinyongqia" unicode="&#58911;" d="M933.7856 738.6368H90.368a90.368 90.368 0 0 1-90.368-90.368v-527.104a90.368 90.368 0 0 1 90.368-90.3424h843.392a90.3424 90.3424 0 0 1 90.3424 90.3424V648.2688a90.3168 90.3168 0 0 1-90.3168 90.368z m-60.2624-572.3392h-210.8416v105.4464h210.8416v-105.4464z m105.4208 301.2352H45.2096v120.4736h933.76v-120.4736z m0 0"  horiz-adv-x="1024" />
      
      <glyph glyph-name="a-pinhetuxing6" unicode="&#59029;" d="M729.633583 849.708195V739.445116a46.237123 46.237123 0 0 0-78.769231-32.670543 46.167906 46.167906 0 0 0-13.497364 32.670543V849.708195a46.029471 46.029471 0 0 0 71.778289 38.415574 45.82182 45.82182 0 0 0 20.488306-38.415574z m245.236717-490.265783A487.427876 487.427876 0 1 0 487.511641 846.870288a46.029471 46.029471 0 0 0 38.346357-71.778289 46.029471 46.029471 0 0 0-38.346357-20.557523A395.092064 395.092064 0 1 1 882.603706 359.442412a45.683385 45.683385 0 0 0 20.488306 38.346356 45.891037 45.891037 0 0 0 58.280925-5.745031 46.513992 46.513992 0 0 0 13.497363-32.601325zM863.222876 672.719686l95.312153 95.381371a46.029471 46.029471 0 0 1 0 65.20265 46.029471 46.029471 0 0 1-65.202649 0L797.951009 738.060771a46.167906 46.167906 0 1 1 65.271867-65.271867z m16.473705-163.35271H989.890444a46.098689 46.098689 0 1 1 0 92.335812h-110.26308a46.029471 46.029471 0 0 1-38.415574-71.778289 45.683385 45.683385 0 0 1 38.415574-20.488306zM217.772017 319.850145c58.14249 0 101.887792 1.661214 131.305124 5.052859 36.962012 4.222252 69.21725 12.459105 96.627281 24.710558 30.040287 13.289712 60.357442 33.916453 90.951467 61.67257 15.227795 13.84345 31.355414 30.178721 48.452075 49.144248h-97.596323a46.029471 46.029471 0 0 0-38.415573 71.778288 46.098689 46.098689 0 0 0 38.415573 20.557524H683.604111c25.471948 0 46.167906-20.765175 46.167906-46.167906v-196.09247a46.237123 46.237123 0 0 0-71.778288-38.415574 46.029471 46.029471 0 0 0-20.557524 38.415574v70.601595c-13.358929-14.120319-26.302555-26.856293-38.76166-38.138705-37.861836-34.470191-76.415844-60.357442-115.454373-77.730972a421.533054 421.533054 0 0 0-123.622009-31.978369c-32.878194-3.806949-80.153576-5.675815-141.826146-5.675815a46.029471 46.029471 0 0 0-38.346356 71.778289 46.029471 46.029471 0 0 0 38.346356 20.488306z"  horiz-adv-x="1036" />
      
      <glyph glyph-name="youxiang" unicode="&#58974;" d="M204.8 53.3504a108.8 108.8 0 0 0-108.8 108.8V605.8496c0 60.1088 48.6912 108.8 108.8 108.8h614.4c60.1088 0 108.8-48.6912 108.8-108.8v-443.6992A108.8 108.8 0 0 0 819.2 53.3504H204.8z m0 64h614.4a44.8 44.8 0 0 1 44.8 44.8V605.8496A44.8 44.8 0 0 1 819.2 650.6496H204.8a44.8 44.8 0 0 1-44.8-44.8v-443.6992c0-24.7808 20.0704-44.8 44.8-44.8zM139.5712 508.8256a32 32 0 1 0 28.0576 57.5488l335.9744-163.9936c5.2736-2.56 11.52-2.56 16.7936 0l335.9744 163.9936a32 32 0 1 0 28.0576-57.5488l-335.9232-163.9424c-23.04-11.264-49.9712-11.264-73.0112 0L139.5712 508.8256z"  horiz-adv-x="1024" />
      
      <glyph glyph-name="gantanhao-quan" unicode="&#59151;" d="M512-40c234.169 0 424 189.831 424 424S746.169 808 512 808 88 618.169 88 384s189.831-424 424-424z m0-88C229.23-128 0 101.23 0 384S229.23 896 512 896s512-229.23 512-512-229.23-512-512-512zM556 640c0 24.3-19.7 44-44 44s-44-19.7-44-44v-339.492c0-24.301 19.7-44 44-44s44 19.699 44 44V640z m-44-428c-35.346 0-64-28.654-64-64 0-35.346 28.654-64 64-64 35.346 0 64 28.654 64 64 0 35.346-28.654 64-64 64z"  horiz-adv-x="1024" />
      
      <glyph glyph-name="shangjiantou" unicode="&#59057;" d="M554.666667 541.44V85.333333a42.666667 42.666667 0 0 0-85.333334 0V541.44a8.533333 8.533333 0 0 1-14.549333 5.973333l-184.149333-184.106666a42.666667 42.666667 0 0 0-60.330667 60.330666l241.365333 241.365334a85.333333 85.333333 0 0 0 120.661334 0l241.365333-241.365334a42.666667 42.666667 0 0 0-60.330667-60.330666l-184.149333 184.149333a8.533333 8.533333 0 0 1-14.549333-6.058667z"  horiz-adv-x="1024" />
      
      <glyph glyph-name="xiajiantou" unicode="&#59059;" d="M554.666667 226.56V682.666667a42.666667 42.666667 0 0 1-85.333334 0v-456.106667a8.533333 8.533333 0 0 0-14.549333-5.973333l-184.149333 184.106666a42.666667 42.666667 0 0 1-60.330667-60.330666l241.365333-241.365334a85.333333 85.333333 0 0 1 120.661334 0l241.365333 241.365334a42.666667 42.666667 0 0 1-60.330667 60.330666l-184.149333-184.149333a8.533333 8.533333 0 0 0-14.549333 6.058667z"  horiz-adv-x="1024" />
      
      <glyph glyph-name="a-ziyuan18" unicode="&#59027;" d="M709.380995 381.375965s-1.498165 5.992658-2.996329 8.988987a25.318982 25.318982 0 0 1-4.494494 8.988988 52.435761 52.435761 0 0 1-5.992658 7.490823c-2.247247 2.247247-4.494494 4.494494-7.490823 5.992658a25.318982 25.318982 0 0 1-8.988988 4.494494c-2.996329 1.498165-5.992658 2.247247-8.988988 2.996329H351.319655c-2.996329-0.749082-6.741741-1.498165-9.73807-2.996329a22.472469 22.472469 0 0 1-8.239905-4.494494c-2.996329-1.498165-5.243576-3.745412-7.490823-5.992658s-4.494494-5.243576-6.741741-7.490823l-4.494494-8.988988c-0.749082-2.996329-2.247247-5.992658-2.247247-8.988987-0.749082-3.745412-1.498165-6.741741-1.498164-9.73807 0-3.745412 0.749082-6.741741 1.498164-9.73807 0-3.745412 1.498165-6.741741 2.247247-9.73807 1.498165-2.996329 2.996329-5.992658 4.494494-8.239905 2.247247-2.996329 4.494494-5.243576 6.741741-7.490823s4.494494-4.494494 7.490823-6.741741c2.996329-1.498165 5.243576-2.996329 8.239905-4.494494 2.996329-1.498165 6.741741-2.247247 9.73807-2.996329 2.996329 0 6.741741-0.749082 9.73807-0.749082h299.63292s6.741741 0.749082 9.73807 0.749082c2.996329 0 5.992658 1.498165 8.988988 2.996329l8.988988 4.494494c2.996329 2.247247 5.243576 4.494494 7.490823 6.741741s4.494494 4.494494 5.992658 7.490823c2.247247 2.247247 3.745412 5.243576 4.494494 8.239905 1.498165 2.996329 2.247247 5.992658 2.996329 9.73807 0.749082 2.996329 1.498165 5.992658 1.498165 9.73807 0 2.996329-0.749082 5.992658-1.498165 9.73807z m0 0s-1.498165 5.992658-2.996329 8.988987a25.318982 25.318982 0 0 1-4.494494 8.988988 52.435761 52.435761 0 0 1-5.992658 7.490823c-2.247247 2.247247-4.494494 4.494494-7.490823 5.992658a25.318982 25.318982 0 0 1-8.988988 4.494494c-2.996329 1.498165-5.992658 2.247247-8.988988 2.996329H351.319655c-2.996329-0.749082-6.741741-1.498165-9.73807-2.996329a22.472469 22.472469 0 0 1-8.239905-4.494494c-2.996329-1.498165-5.243576-3.745412-7.490823-5.992658s-4.494494-5.243576-6.741741-7.490823l-4.494494-8.988988c-0.749082-2.996329-2.247247-5.992658-2.247247-8.988987-0.749082-3.745412-1.498165-6.741741-1.498164-9.73807 0-3.745412 0.749082-6.741741 1.498164-9.73807 0-3.745412 1.498165-6.741741 2.247247-9.73807 1.498165-2.996329 2.996329-5.992658 4.494494-8.239905 2.247247-2.996329 4.494494-5.243576 6.741741-7.490823s4.494494-4.494494 7.490823-6.741741c2.996329-1.498165 5.243576-2.996329 8.239905-4.494494 2.996329-1.498165 6.741741-2.247247 9.73807-2.996329 2.996329 0 6.741741-0.749082 9.73807-0.749082h299.63292s6.741741 0.749082 9.73807 0.749082c2.996329 0 5.992658 1.498165 8.988988 2.996329l8.988988 4.494494c2.996329 2.247247 5.243576 4.494494 7.490823 6.741741s4.494494 4.494494 5.992658 7.490823c2.247247 2.247247 3.745412 5.243576 4.494494 8.239905 1.498165 2.996329 2.247247 5.992658 2.996329 9.73807 0.749082 2.996329 1.498165 5.992658 1.498165 9.73807 0 2.996329-0.749082 5.992658-1.498165 9.73807z m301.880167 265.175134c0 11.985317-4.494494 23.970634-11.985317 32.959622L824.739669 878.766613a49.51434 49.51434 0 0 1-38.203197 17.228893H237.459145c-14.232564 0-28.465127-5.992658-37.454115-17.228893L25.468854 679.510721c-8.239905-8.988988-12.734399-20.225222-12.734399-32.959622 0-3.745412 0-7.490823 0.749082-10.487152-0.749082-4.494494-0.749082-9.73807-0.749082-14.981646v-648.705273c0-55.43209 44.944938-100.377028 99.627946-100.377028H911.633216c55.43209 0 99.627946 44.944938 99.627946 100.377028V621.082301c0 5.243576 0 10.487152-0.749082 14.981646 0.749082 2.996329 0.749082 6.741741 0.749082 10.487152z m-751.329548 149.81646h504.132389l65.919242-74.90823H194.761454l65.17016 74.90823z m651.701602-823.990531H112.362401V621.082301H911.633216v-648.705273zM314.614622 352.161755s2.996329-5.992658 4.494494-8.239905c2.247247-2.996329 4.494494-5.243576 6.741741-7.490823s4.494494-4.494494 7.490823-6.741741c2.996329-1.498165 5.243576-2.996329 8.239905-4.494494 2.996329-1.498165 6.741741-2.247247 9.73807-2.996329 2.996329 0 6.741741-0.749082 9.73807-0.749082h299.63292s6.741741 0.749082 9.73807 0.749082c2.996329 0 5.992658 1.498165 8.988988 2.996329l8.988988 4.494494c2.996329 2.247247 5.243576 4.494494 7.490823 6.741741s4.494494 4.494494 5.992658 7.490823c2.247247 2.247247 3.745412 5.243576 4.494494 8.239905 1.498165 2.996329 2.247247 5.992658 2.996329 9.73807 0.749082 2.996329 1.498165 5.992658 1.498165 9.73807 0 2.996329-0.749082 5.992658-1.498165 9.73807a42.248242 42.248242 0 0 1-2.996329 8.988987 25.318982 25.318982 0 0 1-4.494494 8.988988 52.435761 52.435761 0 0 1-5.992658 7.490823c-2.247247 2.247247-4.494494 4.494494-7.490823 5.992658a25.318982 25.318982 0 0 1-8.988988 4.494494c-2.996329 1.498165-5.992658 2.247247-8.988988 2.996329H351.319655c-2.996329-0.749082-6.741741-1.498165-9.73807-2.996329a22.472469 22.472469 0 0 1-8.239905-4.494494c-2.996329-1.498165-5.243576-3.745412-7.490823-5.992658s-4.494494-5.243576-6.741741-7.490823l-4.494494-8.988988c-0.749082-2.996329-2.247247-5.992658-2.247247-8.988987-0.749082-3.745412-1.498165-6.741741-1.498164-9.73807 0-3.745412 0.749082-6.741741 1.498164-9.73807 0-3.745412 1.498165-6.741741 2.247247-9.73807z m394.766373 29.21421s-1.498165 5.992658-2.996329 8.988987a25.318982 25.318982 0 0 1-4.494494 8.988988 52.435761 52.435761 0 0 1-5.992658 7.490823c-2.247247 2.247247-4.494494 4.494494-7.490823 5.992658a25.318982 25.318982 0 0 1-8.988988 4.494494c-2.996329 1.498165-5.992658 2.247247-8.988988 2.996329H351.319655c-2.996329-0.749082-6.741741-1.498165-9.73807-2.996329a22.472469 22.472469 0 0 1-8.239905-4.494494c-2.996329-1.498165-5.243576-3.745412-7.490823-5.992658s-4.494494-5.243576-6.741741-7.490823l-4.494494-8.988988c-0.749082-2.996329-2.247247-5.992658-2.247247-8.988987-0.749082-3.745412-1.498165-6.741741-1.498164-9.73807 0-3.745412 0.749082-6.741741 1.498164-9.73807 0-3.745412 1.498165-6.741741 2.247247-9.73807 1.498165-2.996329 2.996329-5.992658 4.494494-8.239905 2.247247-2.996329 4.494494-5.243576 6.741741-7.490823s4.494494-4.494494 7.490823-6.741741c2.996329-1.498165 5.243576-2.996329 8.239905-4.494494 2.996329-1.498165 6.741741-2.247247 9.73807-2.996329 2.996329 0 6.741741-0.749082 9.73807-0.749082h299.63292s6.741741 0.749082 9.73807 0.749082c2.996329 0 5.992658 1.498165 8.988988 2.996329l8.988988 4.494494c2.996329 2.247247 5.243576 4.494494 7.490823 6.741741s4.494494 4.494494 5.992658 7.490823c2.247247 2.247247 3.745412 5.243576 4.494494 8.239905 1.498165 2.996329 2.247247 5.992658 2.996329 9.73807 0.749082 2.996329 1.498165 5.992658 1.498165 9.73807 0 2.996329-0.749082 5.992658-1.498165 9.73807z m0 0s-1.498165 5.992658-2.996329 8.988987a25.318982 25.318982 0 0 1-4.494494 8.988988 52.435761 52.435761 0 0 1-5.992658 7.490823c-2.247247 2.247247-4.494494 4.494494-7.490823 5.992658a25.318982 25.318982 0 0 1-8.988988 4.494494c-2.996329 1.498165-5.992658 2.247247-8.988988 2.996329H351.319655c-2.996329-0.749082-6.741741-1.498165-9.73807-2.996329a22.472469 22.472469 0 0 1-8.239905-4.494494c-2.996329-1.498165-5.243576-3.745412-7.490823-5.992658s-4.494494-5.243576-6.741741-7.490823l-4.494494-8.988988c-0.749082-2.996329-2.247247-5.992658-2.247247-8.988987-0.749082-3.745412-1.498165-6.741741-1.498164-9.73807 0-3.745412 0.749082-6.741741 1.498164-9.73807 0-3.745412 1.498165-6.741741 2.247247-9.73807 1.498165-2.996329 2.996329-5.992658 4.494494-8.239905 2.247247-2.996329 4.494494-5.243576 6.741741-7.490823s4.494494-4.494494 7.490823-6.741741c2.996329-1.498165 5.243576-2.996329 8.239905-4.494494 2.996329-1.498165 6.741741-2.247247 9.73807-2.996329 2.996329 0 6.741741-0.749082 9.73807-0.749082h299.63292s6.741741 0.749082 9.73807 0.749082c2.996329 0 5.992658 1.498165 8.988988 2.996329l8.988988 4.494494c2.996329 2.247247 5.243576 4.494494 7.490823 6.741741s4.494494 4.494494 5.992658 7.490823c2.247247 2.247247 3.745412 5.243576 4.494494 8.239905 1.498165 2.996329 2.247247 5.992658 2.996329 9.73807 0.749082 2.996329 1.498165 5.992658 1.498165 9.73807 0 2.996329-0.749082 5.992658-1.498165 9.73807z"  horiz-adv-x="1024" />
      
      <glyph glyph-name="a-ziyuan17" unicode="&#59023;" d="M1233.066667 355.84l-198.826667 183.466667a56.405333 56.405333 0 0 1-38.4 15.36H853.333333V782.506667C853.333333 844.8 802.133333 896 739.84 896H113.493333C51.2 896 0 844.8 0 782.506667v-626.346667C0 93.866667 51.2 42.666667 113.493333 42.666667c0-93.866667 76.8-170.666667 170.666667-170.666667s170.666667 76.8 170.666667 170.666667h285.013333a170.666667 170.666667 0 1 1 341.333333 0H1194.666667c31.573333 0 57.173333 25.6 57.173333 57.173333V314.026667a56.32 56.32 0 0 1-18.773333 41.813333zM284.16-14.506667c-30.72 0-56.32 25.6-56.32 57.173334H341.333333c0-31.573333-25.6-57.173333-57.173333-57.173334z m455.68 170.666667H113.493333V782.506667h626.346667v-626.346667z m170.666667-170.666667A57.173333 57.173333 0 0 0 853.333333 42.666667h113.493334c0-31.573333-25.6-57.173333-56.32-57.173334z m226.986666 170.666667H853.333333V441.173333h120.32l163.84-151.893333v-133.12z"  horiz-adv-x="1251" />
      
      <glyph glyph-name="a-ziyuan21" unicode="&#59025;" d="M940.411725 184.01636l-92.837083 93.535106a46.348739 46.348739 0 0 1-65.614178 0L548.820723 44.411725c-8.376278-8.376278-13.26244-20.242672-13.262441-32.80709V-81.232447c0-25.826858 20.940695-46.767553 46.06953-46.767553h93.535106c11.866394 0 23.732788 4.886162 32.807089 13.960464l232.441718 232.441717c18.148603 18.148603 18.148603 47.465576 0 65.614179z m-284.793456-218.481254H628.395365v27.222904l186.372188 185.674165 27.222904-27.222904-186.372188-185.674165z m251.288343 660.329925s-1.396046 5.584185-2.792093 9.074301c-1.396046 2.792093-2.792093 4.886162-4.188139 7.678255a24.0818 24.0818 0 0 1-5.584185 6.282209L686.331288 880.64349a47.605181 47.605181 0 0 1-34.901158 15.35651h-488.616224C111.858214 896 69.976823 854.118609 69.976823 803.162918v-837.627812c0-51.653715 41.881391-93.535106 92.837083-93.535106h279.209271s6.282209 0.698023 9.074301 1.396046c3.490116 0 6.282209 1.396046 9.074301 2.09407 2.792093 1.396046 5.584185 2.792093 7.678255 4.886162 2.792093 1.396046 4.886162 3.490116 6.980232 5.584186 2.792093 2.09407 4.188139 4.188139 6.282208 6.980231 1.396046 2.792093 2.792093 4.886162 4.188139 7.678255 1.396046 3.490116 2.09407 6.282209 2.792093 9.074302S488.790729-84.02454 488.790729-81.232447s0 6.282209-0.698023 9.074301-1.396046 5.584185-2.792093 9.074301c-1.396046 2.792093-2.792093 4.886162-4.188139 7.678255-2.09407 2.792093-3.490116 4.886162-6.282208 6.980232-2.09407 2.09407-4.188139 4.188139-6.980232 5.584186-2.09407 2.09407-4.886162 3.490116-7.678255 4.886162-2.792093 0.698023-5.584185 2.09407-9.074301 2.094069-2.792093 0-5.584185 1.396046-9.074301 1.396047h-279.209271v837.627812h418.813906V616.790729c0-25.826858 20.940695-46.767553 46.767553-46.767552h186.372188V407.383776s0-6.282209 0.698023-9.074301 1.396046-5.584185 2.792093-9.074301a20.940695 20.940695 0 0 1 4.188139-7.678255c1.396046-2.792093 3.490116-4.886162 5.584185-6.980232s4.886162-4.188139 6.980232-5.584185c2.792093-2.09407 5.584185-3.490116 8.376278-4.886163 2.792093-0.698023 5.584185-2.09407 8.376278-2.094069 3.490116 0 6.282209-1.396046 9.074301-1.396046 3.490116 0 6.282209 0.698023 9.074302 1.396046 3.490116 0 6.282209 1.396046 9.074301 2.094069 2.792093 1.396046 5.584185 2.792093 7.678255 4.886163 2.792093 1.396046 4.886162 3.490116 6.980232 5.584185 2.792093 2.09407 4.188139 4.188139 6.282208 6.980232 1.396046 2.792093 2.792093 4.886162 4.188139 7.678255 1.396046 3.490116 2.09407 6.282209 2.792093 9.074301S907.604635 404.591684 907.604635 407.383776V616.790729s0 6.282209-0.698023 9.074302z m-231.743694 37.693251v90.743013l81.668711-90.743013H675.162918z"  horiz-adv-x="1024" />
      
      <glyph glyph-name="xiaoxi" unicode="&#58945;" d="M721.338182 545.140364a64.512 64.512 0 0 0 64.512-64.488728 64.512 64.512 0 0 0-129.000727 0 64.488727 64.488727 0 0 0 64.488727 64.488728zM495.592727 545.140364a64.465455 64.465455 0 1 0 0-128.977455 64.465455 64.465455 0 0 0 0 128.977455zM269.847273 545.140364a64.512 64.512 0 1 0 0-129.000728 64.512 64.512 0 0 0 0 129.000728zM427.264-34.769455a32.116364 32.116364 0 0 0-28.299636 16.756364l-109.544728 192.069818a32.186182 32.186182 0 0 0 12.032 43.962182 32.116364 32.116364 0 0 0 43.962182-12.032l81.850182-143.429818 81.850182 143.429818c8.843636 15.499636 28.509091 20.945455 43.985454 12.032 15.476364-8.797091 20.852364-28.485818 12.032-43.962182l-109.568-192.069818a32.302545 32.302545 0 0 0-28.229818-16.756364h-0.069818zM837.934545 158.976H540.439273c-17.826909 0-32.256 14.405818-32.256 32.256s14.429091 32.256 32.256 32.256h297.495272c42.146909 0 76.404364 32.814545 76.404364 73.146182V665.204364c0 40.308364-34.280727 73.076364-76.404364 73.076363H186.042182c-42.123636 0-76.381091-32.768-76.381091-73.076363v-368.570182c0-40.308364 34.257455-73.146182 76.381091-73.146182h129.419636c17.826909 0 32.256-14.405818 32.256-32.256s-14.429091-32.256-32.256-32.256H186.042182c-77.684364 0-140.893091 61.719273-140.893091 137.634909V665.204364c0 75.869091 63.208727 137.588364 140.893091 137.588363h651.892363c77.684364 0 140.916364-61.719273 140.916364-137.588363v-368.570182c0-75.938909-63.232-137.658182-140.916364-137.658182z"  horiz-adv-x="1024" />
      
      <glyph glyph-name="time" unicode="&#58973;" d="M512 832C264.96 832 64 631.04 64 384s200.96-448 448-448 448 200.96 448 448S759.04 832 512 832zM512 0.288c-211.584 0-383.712 172.16-383.712 383.712C128.288 595.584 300.416 767.712 512 767.712c211.552 0 383.712-172.128 383.712-383.712C895.712 172.448 723.552 0.288 512 0.288zM671.968 384 512 384 512 607.936c0 17.76-14.24 32.128-32 32.128s-32-14.4-32-32.128L448 352c0-17.76 14.272-32 32-32l191.968 0c17.76 0 32.128 14.24 32.128 32S689.728 384 671.968 384z"  horiz-adv-x="1024" />
      
      <glyph glyph-name="a-ziyuan16" unicode="&#59008;" d="M930.440793 709.606115h-103.304754L732.905351 872.939308a46.487139 46.487139 0 0 1-63.518464 16.752122L358.076614 709.606115h-265.241936C41.880306 709.606115 0 668.423815 0 616.771437v-651.238754c0-51.652377 41.880306-93.532683 92.834678-93.532683h837.606115c51.652377 0 93.532683 41.880306 93.532683 93.532683V616.771437c0 51.652377-41.880306 92.834678-93.532683 92.834678zM675.668933 785.688671l43.974321-75.384551h-174.501274l130.526953 75.384551z m254.77186-564.686123h-157.051147c-20.940153 0-39.088285 6.980051-53.746392 21.638158-14.658107 13.262097-21.638158 29.316214-21.638158 48.162352s6.980051 34.900255 21.638158 48.860356c14.658107 13.960102 32.80624 20.940153 53.746392 20.940153h157.051147v-139.601019z m0 233.133702h-157.051147a181.969929 181.969929 0 0 1-64.914474-12.564092c-9.772071-4.188031-18.846138-9.074066-27.920203-14.658107-9.074066-5.584041-17.450127-12.564092-25.128184-20.242147-7.678056-6.980051-14.658107-14.658107-20.940153-23.034169-6.282046-9.074066-11.168082-18.148132-16.054117-28.618209s-8.376061-21.638158-10.470076-32.806239c-2.094015-10.470076-2.79202-20.940153-2.792021-31.410229s0.698005-20.940153 2.792021-30.712225c2.094015-11.168082 5.584041-22.336163 10.470076-33.504244 4.886036-9.772071 9.772071-19.544143 16.054117-27.920204s13.262097-16.054117 20.940153-23.732173c7.678056-7.678056 16.054117-13.960102 25.128184-20.242148a177.432895 177.432895 0 0 1 59.330433-23.034168c11.168082-2.094015 22.336163-3.490025 33.504244-3.490026h157.051147v-162.635187h-837.606115V616.771437h837.606115v-162.635187z"  horiz-adv-x="1024" />
      
      <glyph glyph-name="a-ziyuan15" unicode="&#59006;" d="M998.173142 658.67212L532.591684 891.113838a47.325971 47.325971 0 0 1-41.183368 0L25.826858 658.67212A47.605181 47.605181 0 0 1 0 616.790729v-465.581458c0-17.450579 9.772324-33.505112 25.826858-41.183368l464.185412-232.441718 4.188139-2.094069c2.792093-0.698023 5.584185-2.09407 8.376278-2.09407 3.490116 0 6.282209-1.396046 9.074301-1.396046h0.698024c6.980232 0 13.960464 2.09407 20.242672 4.886162l465.581458 233.139741c15.35651 7.678255 25.826858 23.732788 25.826858 41.183368V616.790729c0 17.450579-10.470348 33.505112-25.826858 41.881391zM254.080436 668.444444l257.570552 129.134288 25.128835-12.564417 104.005453-51.653715-104.005453-52.351738L279.209271 552.572597l-25.128835 12.564417L150.773006 616.790729l103.30743 51.653715z m211.501023-674.290388l-372.744377 186.372188V541.404226l92.837083-46.069529 71.198364-35.599182s2.09407-1.396046 3.490116-2.09407l205.218814-102.609407v-360.877982z m46.069529 441.848671l-24.430811 12.564417-104.005453 51.653715 104.005453 52.351738 257.570552 128.436265 24.430812-12.564418 104.005453-51.653715-104.005453-51.653715-257.570553-129.134287z m418.813906-255.476483l-279.20927-140.302658-92.837083-46.06953V355.032038l279.209271 140.302659 92.837082 46.069529v-360.877982z"  horiz-adv-x="1024" />
      
      <glyph glyph-name="a-ziyuan14" unicode="&#59004;" d="M928.731636 576L542.549818 885.090909c-18.181818 14.545455-42.909091 14.545455-61.090909 0L95.277091 576a46.545455 46.545455 0 0 1-18.181818-37.818182v-618.181818c0-26.181818 21.818182-48 48.727272-48h772.363637c26.909091 0 48.727273 21.818182 48.727273 48v618.181818c0 15.272727-6.545455 29.090909-18.181819 37.818182z m-336.727272-607.272727H431.277091V206.545455h160.727273v-237.818182z m257.454545 0h-160V255.272727s-0.727273 5.818182-1.454545 9.454546l-2.181819 8.727272a54.254545 54.254545 0 0 1-5.090909 8.727273 50.909091 50.909091 0 0 1-5.818181 7.272727c-2.181818 2.181818-4.363636 4.363636-7.272728 5.818182A24.581818 24.581818 0 0 1 658.913455 299.636364c-2.909091 1.454545-5.818182 2.181818-8.727273 2.909091H383.277091c-26.909091 0-48.727273-21.090909-48.727273-48v-286.545455H173.822545V514.909091l338.181819 270.545454 337.454545-270.545454v-546.181818z"  horiz-adv-x="1024" />
      
      <glyph glyph-name="filter1" unicode="&#58907;" d="M686.646658 725.19046a213.244304 213.244304 0 0 0 417.958836 0H1364.763545v-85.297722h-260.158051a213.244304 213.244304 0 0 0-417.958836 0H0V725.19046h686.646658z m208.979418-170.595443a127.946582 127.946582 0 1 1 0 255.893164 127.946582 127.946582 0 0 1 0-255.893164zM260.158051 128.106409a213.244304 213.244304 0 0 0 417.958835 0H1364.763545v-85.297722H678.116886a213.244304 213.244304 0 0 0-417.958835 0H0V128.106409h260.158051z m208.979417-170.595443a127.946582 127.946582 0 1 1 0 255.893164 127.946582 127.946582 0 0 1 0-255.893164z"  horiz-adv-x="1365" />
      
      <glyph glyph-name="tianjia" unicode="&#58925;" d="M889.3 425.5H553.5V761.3c0 20.8-16.9 37.7-37.7 37.7h-7.5c-20.8 0-37.7-16.9-37.7-37.7v-335.8H134.7c-20.8 0-37.7-16.9-37.7-37.7v-7.5c0-20.8 16.9-37.7 37.7-37.7h335.8v-335.8c0-20.8 16.9-37.7 37.7-37.7h7.5c20.8 0 37.7 16.9 37.7 37.7V342.5h335.8c20.8 0 37.7 16.9 37.7 37.7v7.5c0.1 20.9-16.8 37.8-37.6 37.8z"  horiz-adv-x="1024" />
      
      <glyph glyph-name="s-jingdong" unicode="&#58882;" d="M511.994 896C229.169 896 0.019 666.776 0.019 384s229.211-512 511.975-512 511.987 229.224 511.987 512S794.77 896 511.994 896z m-78.61-578.297c0-85.663-45.179-156.073-143.167-156.073-68.063 0-112.648 26.406-144.34 80.39l71.633 53.39c15.253-29.925 37.545-43.424 58.677-43.424 34.025 0 52.217 17.019 52.217 73.93V606.382h104.98z m229.396-147.86H531.36v436.54h125.554c133.187 0 221.196-63.952 221.196-215.924s-87.997-220.616-215.33-220.616z m-12.35 353.223h-14.08v-268.733h14.08c70.397 0 120.28 32.271 120.28 136.126s-49.833 132.607-120.243 132.607z"  horiz-adv-x="1024" />
      
      <glyph glyph-name="download" unicode="&#58910;" d="M561.590857 258.779429l171.666286 144.237714a49.152 49.152 0 0 0 63.926857-3.145143c16.822857-16.676571 16.091429-42.496-1.682286-58.294857l-248.685714-208.969143a49.225143 49.225143 0 0 0-63.634286 1.243429L253.805714 342.747429a39.131429 39.131429 0 0 0 1.170286 58.075428 49.225143 49.225143 0 0 0 63.707429 1.024l151.186285-137.508571v525.897143c0 14.921143 8.777143 28.672 22.893715 36.132571a49.810286 49.810286 0 0 0 45.933714 0c14.189714-7.460571 22.966857-21.211429 22.966857-36.132571v-531.456z m-515.657143 16.018285c25.307429 0 45.860571-18.724571 45.860572-41.764571v-208.969143c0-15.36 13.750857-27.867429 30.573714-27.867429h779.264c16.822857 0 30.573714 12.434286 30.573714 27.794286V233.106286c0 23.04 20.553143 41.691429 45.933715 41.691428 25.307429 0 45.860571-18.651429 45.860571-41.691428v-208.969143c0-61.586286-54.857143-111.469714-122.368-111.469714H122.368C54.857143-87.405714 0-37.522286 0 24.137143V233.033143c0 23.04 20.48 41.691429 45.860571 41.691428z"  horiz-adv-x="1024" />
      
      <glyph glyph-name="bangzhu1" unicode="&#58997;" d="M511.054341 895.345445c282.246117 0 511.053964-228.797619 511.053964-511.053964 0-282.246117-228.797619-511.053964-511.053964-511.053963S0.000377 102.035137 0.000377 384.291481C-0.00985 666.547826 228.797996 895.345445 511.054341 895.345445z m0-76.654515c-239.914825 0-434.399449-194.474396-434.399449-434.399449 0-239.914825 194.474396-434.399449 434.399449-434.399448 239.914825 0 434.399449 194.484624 434.399449 434.399448-0.010227 239.914825-194.494851 434.399449-434.399449 434.399449z m0 0M541.460461 258.320346V271.350079c0 18.399129 3.835283 35.264145 12.262677 50.595048 6.903509 13.79679 17.632073 27.59358 32.195919 39.866485 36.031202 31.428862 57.498557 51.362105 64.391838 59.789499 19.166186 24.525354 29.127693 55.964444 29.127693 93.519531 0 45.992709-15.330903 82.790967-45.992709 109.61749-30.661806 27.59358-70.518063 40.633541-119.589225 40.633541-56.721273 0-101.190096-16.09796-133.386015-49.060935-32.195919-32.195919-48.293879-75.897686-48.293879-131.851902h80.500025c0 33.730032 6.893281 59.799726 20.690072 78.198855 15.330903 22.224184 40.623313 32.962976 75.120402 32.962976 27.603807 0 49.827992-7.670565 65.158894-23.001469 14.563846-15.330903 22.234412-36.031202 22.234412-62.857725 0-19.933242-7.670565-38.332371-21.467355-55.964443l-13.029734-14.563847c-47.526822-42.167654-76.654515-73.596516-86.616022-95.063871-10.728564-19.933242-15.330903-44.468823-15.330903-72.819233v-13.029733h82.02391zM500.059864 107.302258c15.330903 0 29.127693 5.369396 39.866484 15.330903 10.728564 10.728564 16.865016 23.768525 16.865016 39.866484 0 16.09796-5.369396 29.127693-16.097959 39.099428-10.728564 10.728564-24.525354 15.330903-40.623313 15.330903-15.330903 0-29.127693-4.602339-39.866485-15.330903-10.728564-9.971735-16.09796-23.001468-16.097959-39.099428 0-15.330903 5.369396-28.360636 16.097959-39.0892 10.728564-10.738791 24.525354-16.108187 39.856257-16.108187z m0 0"  horiz-adv-x="1024" />
      
      <glyph glyph-name="s-weidian" unicode="&#59065;" d="M453.248 246.08c0 12.48 8.32 16.64 16.768 16.64h209.92c8.448 0 16.832-8.32 16.832-16.64v-99.712c0-8.32-8.384-16.64-16.832-16.64h-209.92c-8.384 0-16.832 8.32-16.832 16.64V246.08zM1024 384A512 512 0 1 0 0 384a512 512 0 0 0 1024 0zM520.448 736.576c-21.056-8.32-29.44-29.12-29.44-49.92 0-20.736 12.608-37.376 29.44-49.856a50.944 50.944 0 0 1 58.752 0c16.768 8.32 29.44 29.12 29.44 49.92s-12.672 37.376-29.44 49.856a50.88 50.88 0 0 1-58.752 0z m281.28-332.48v49.856h-205.76v54.016H503.68V312.64H373.44v-224.512h335.936c37.76 0 67.2 29.12 67.2 66.56V312.64H595.904v91.392h205.76z m8.448 149.568v41.6c0 8.32-8.448 12.48-12.608 12.48H268.48c-8.384 0-12.608-8.32-12.608-12.48V262.72c0-58.24-12.608-108.032-37.76-132.992-4.224 0-4.224 0-4.224-4.16v-54.08c0-8.256 4.224-8.256 12.608-4.096 121.728 41.6 117.568 224.384 117.568 224.384V532.928c0 4.16 4.16 8.32 12.544 8.32h440.576c8.32 0 12.992 8.32 12.992 12.416z"  horiz-adv-x="1024" />
      
      <glyph glyph-name="Left" unicode="&#58897;" d="M734.2-49c-17.5-17.5-45.8-17.5-63.3 0L300.7 321.2c-35 35-35 91.7 0 126.6l372.9 373c17.3 17.3 45.3 17.5 62.8 0.5 17.9-17.4 18.1-46.1 0.5-63.8L395.7 416.2c-17.5-17.5-17.5-45.8 0-63.3l338.6-338.6c17.4-17.5 17.4-45.8-0.1-63.3z"  horiz-adv-x="1024" />
      
      <glyph glyph-name="Right" unicode="&#58898;" d="M290.3-49c17.5-17.5 45.8-17.5 63.3 0l370.2 370.2c35 35 35 91.7 0 126.6l-372.9 373c-17.3 17.3-45.3 17.5-62.8 0.5-17.9-17.4-18.1-46.1-0.5-63.8l341.3-341.3c17.5-17.5 17.5-45.8 0-63.3L290.3 14.3c-17.5-17.5-17.5-45.8 0-63.3z"  horiz-adv-x="1024" />
      
      <glyph glyph-name="yanjing" unicode="&#58914;" d="M744.677515 555.072099c-13.74415 8.878964-27.60993 17.028151-41.597339 24.447559l-75.653641-75.653641c10.946668-11.311557 20.312151-24.2043 27.73156-38.313339l89.51942 89.519421zM172.531655 48.971137l33.083264-33.083264 107.155719 107.155719c-14.595558 7.419408-28.704597 15.325336-42.448747 23.596151l-97.790236-97.668606zM432.57584 242.970424c-14.109039 7.297779-27.123411 16.663262-38.434968 27.60993l-91.343865-91.343865c14.352298-8.392446 28.826226-15.933484 43.421784-22.623114l86.357049 86.357049zM885.281387 695.675971l-33.083264 33.083264-115.669794-115.669794c14.230669-7.784297 27.974819-16.176743 41.23245-24.812448l107.520608 107.398978zM619.277349 429.671933c-5.959853 15.082076-14.838817 28.704597-26.028745 40.016153L425.76458 302.325692c11.311557-11.189928 24.934078-20.190521 40.016154-26.028745l153.496615 153.374986zM509.080888 504.717425c15.446965 0 30.285782-2.919112 43.908303-8.392446l36.732154 36.732154c-23.961041 13.62252-51.449341 21.406818-80.640457 21.406818-93.411569 0-165.051431-74.680603-165.051431-165.051432 0-29.799264 7.662668-57.409193 20.9203-81.126974l34.17793 34.17793c-5.351704 13.500891-8.392446 28.339708-8.392445 43.908303 0 65.315121 52.908897 118.345647 118.345646 118.345647zM674.13232 389.412519c0 27.366671-6.81126 53.273785-18.974225 76.140159l-35.880746-35.880745c5.230075-13.379261 8.149186-27.974819 8.149186-43.300155 0-62.274379-52.908897-118.345647-118.345647-118.345647-15.325336 0-29.920893 2.919112-43.300154 8.149187l-33.204894-33.204894c22.988003-11.919705 49.016748-18.487706 76.505048-18.487706 93.411569 0 165.051431 74.680603 165.051432 164.929801zM465.780734 276.175318c-15.082076 5.959853-28.704597 14.838817-40.016154 26.028744l-31.745338-31.745338c11.433187-10.946668 24.325929-20.312151 38.434969-27.60993l33.326523 33.326524zM655.158095 465.552678c-7.419408 13.987409-16.784891 26.880152-27.73156 38.313339l-34.177931-34.177931c11.189928-11.311557 20.190521-24.934078 26.028745-40.016153l35.880746 35.880745zM261.929445 205.265233C240.279368 220.22568 218.87255 237.132201 197.708992 255.619907c-34.299561 31.13719-68.477491 62.274379-96.57394 96.57394-6.203112 6.203112-9.365483 12.406224-15.568595 18.730966 3.162371 6.203112 9.365483 12.406224 12.406224 18.730966 24.934078 34.299561 56.071267 68.477491 90.249198 99.614681 96.57394 87.208457 202.391733 140.117354 320.73738 140.117353 51.6926 0 100.952607-10.095261 148.02328-28.704596l34.421191 34.42119c-53.638674 22.988003-113.72372 37.82682-179.40373 37.82682-298.965673 0-479.464069-305.168785-479.464069-305.168785s76.626678-108.615275 197.404917-194.242547l31.988597 31.745338zM777.760779 588.276993l-33.204894-33.204894c29.191115-18.852595 57.530823-40.989191 85.140754-65.923269 34.299561-31.13719 62.274379-65.43675 90.249198-99.614681 3.162371-6.203112 9.365483-12.406224 12.406224-18.730966-3.162371-6.203112-9.365483-12.406224-15.568595-18.730965-27.974819-31.13719-59.112009-65.43675-96.57394-96.57394-99.614681-84.046086-205.554104-136.954983-311.371897-136.954983-54.611712 0-109.101794 13.257632-162.862097 38.07008l-33.448153-33.448153c60.328305-30.529041 127.71113-51.327711 199.472621-51.327712 270.869224 0 479.464069 295.803302 479.464069 295.803302S914.594132 497.906165 777.760779 588.276993zM777.760779 588.276993c-13.136002 8.757335-26.880152 17.028151-41.23245 24.812448l-33.569783-33.569783c14.109039-7.419408 27.974819-15.568595 41.597339-24.447559l33.204894 33.204894zM302.797007 179.236489L270.321891 146.761373c13.74415-8.392446 27.853189-16.298373 42.448747-23.596151l33.448153 33.448153c-14.595558 6.689631-29.069486 14.230669-43.421784 22.623114z"  horiz-adv-x="1024" />
      
      <glyph glyph-name="yanjing1" unicode="&#58904;" d="M515.2 672C208 672 22.4 358.4 22.4 358.4s214.4-304 492.8-304 492.8 304 492.8 304S822.4 672 515.2 672zM832 243.2c-102.4-86.4-211.2-140.8-320-140.8s-217.6 51.2-320 140.8c-35.2 32-70.4 64-99.2 99.2-6.4 6.4-9.6 12.8-16 19.2 3.2 6.4 9.6 12.8 12.8 19.2 25.6 35.2 57.6 70.4 92.8 102.4 99.2 89.6 208 144 329.6 144s230.4-54.4 329.6-144c35.2-32 64-67.2 92.8-102.4 3.2-6.4 9.6-12.8 12.8-19.2-3.2-6.4-9.6-12.8-16-19.2-28.8-32-60.8-67.2-99.2-99.2zM512 550.4c-96 0-169.6-76.8-169.6-169.6 0-96 76.8-169.6 169.6-169.6 96 0 169.6 76.8 169.6 169.6S604.8 550.4 512 550.4z m0-294.4c-67.2 0-121.6 54.4-121.6 121.6 0 67.2 54.4 121.6 121.6 121.6 67.2 0 121.6-54.4 121.6-121.6 0-64-54.4-121.6-121.6-121.6z"  horiz-adv-x="1024" />
      
      <glyph glyph-name="collect" unicode="&#58883;" d="M485.173861 26.157255l-229.813553-120.819332a53.974999 53.974999 0 0 0-78.316666 56.898821l43.8912 255.899353a53.974999 53.974999 0 0 1-15.522222 47.777399L19.490266 447.142494a53.974999 53.974999 0 0 0 29.915556 92.06371l256.935108 37.338a53.974999 53.974999 0 0 1 40.639999 29.526088l114.909599 232.824864a53.974999 53.974999 0 0 0 96.802221 0l114.906776-232.824864a53.974999 53.974999 0 0 1 40.64-29.52891l256.93793-37.335178a53.974999 53.974999 0 0 0 29.915555-92.06371L815.170657 265.910674a53.974999 53.974999 0 0 1-15.522222-47.777399l43.888377-255.899353a53.974999 53.974999 0 0 0-78.316666-56.898821l-229.813552 120.819332a53.974999 53.974999 0 0 1-50.232733 0z"  horiz-adv-x="1024" />
      
      <glyph glyph-name="shoucang" unicode="&#58890;" d="M335.008-20.63c-35.915-22.314-82.88-10.773-104.693 25.558a77.333 77.333 0 0 0-8.96 57.43l46.485 198.24a13.141 13.141 0 0 1-4.021 12.863l-152.16 132.587c-31.606 27.52-35.254 75.648-8.235 107.733a75.68 75.68 0 0 0 51.733 26.752L354.848 556.8c4.352 0.363 8.245 3.232 10.027 7.595l76.938 188.17c16.032 39.2 60.619 57.92 99.52 41.462a76.31 76.31 0 0 0 40.832-41.462l76.939-188.16c1.781-4.373 5.675-7.253 10.027-7.605l199.712-16.277c41.877-3.414 72.885-40.459 69.568-82.518a76.939 76.939 0 0 0-26.08-51.978L760.17 273.44c-3.542-3.083-5.142-8.075-4.022-12.853l46.486-198.24c9.621-41.014-15.36-82.336-56.139-92.224a75.285 75.285 0 0 0-57.525 9.237L517.995 85.6a11.296 11.296 0 0 1-12.011 0L334.997-20.64z m216.779 160.598l170.976-106.24c2.624-1.621 5.717-2.123 8.65-1.408 6.411 1.557 10.56 8.427 8.928 15.424l-46.485 198.24a77.141 77.141 0 0 0 24.277 75.733l152.16 132.576c2.486 2.166 4.054 5.312 4.331 8.747 0.565 7.136-4.49 13.173-10.976 13.696l-199.712 16.288a75.99 75.99 0 0 0-64.064 47.168l-76.939 188.16a12.31 12.31 0 0 1-6.538 6.741c-5.899 2.496-12.726-0.373-15.328-6.741l-76.95-188.16a75.99 75.99 0 0 0-64.064-47.168l-199.701-16.288a11.68 11.68 0 0 1-7.979-4.181 13.227 13.227 0 0 1 1.334-18.262l152.16-132.586a77.141 77.141 0 0 0 24.277-75.734l-46.485-198.229a13.333 13.333 0 0 1 1.514-9.877c3.488-5.792 10.582-7.531 16.064-4.128l170.987 106.229a75.296 75.296 0 0 0 79.563 0z"  horiz-adv-x="1024" />
      
      <glyph glyph-name="sub" unicode="&#58905;" d="M192 416m32 0l608 0q32 0 32-32l0 0q0-32-32-32l-608 0q-32 0-32 32l0 0q0 32 32 32Z"  horiz-adv-x="1024" />
      
      <glyph glyph-name="a-ziyuan13" unicode="&#58995;" d="M744.600273 569.800819c-11.874488 0-23.748977-4.889495-32.829468-13.271487L531.557981 375.618008l-66.357435-65.658936-65.658936 65.658936-40.512961 41.21146a49.453752 49.453752 0 0 1-33.527967 13.271487 46.450205 46.450205 0 1 1-32.829468-78.930423l139.699864-139.699864a46.659754 46.659754 0 0 1 66.357435 0l278.701228 279.399728h0.698499a46.450205 46.450205 0 0 1-33.527967 78.930423z m0 0c-11.874488 0-23.748977-4.889495-32.829468-13.271487L531.557981 375.618008l-66.357435-65.658936-65.658936 65.658936-40.512961 41.21146a49.453752 49.453752 0 0 1-33.527967 13.271487 46.450205 46.450205 0 1 1-32.829468-78.930423l139.699864-139.699864a46.659754 46.659754 0 0 1 66.357435 0l278.701228 279.399728h0.698499a46.450205 46.450205 0 0 1-33.527967 78.930423z m129.920873 176.021828C773.937244 845.708049 653.795362 896 512 896h-8.381992C366.013643 893.904502 247.967258 844.31105 150.177353 745.822647c-15.366985-15.366985-29.336971-30.73397-42.608458-46.799455-21.653479-27.241473-39.814461-55.181446-54.482947-85.216916C17.462483 544.654843 0 467.819918 0 384c0-141.795362 50.291951-261.937244 150.177353-362.521146 99.885402-99.885402 220.725784-149.478854 361.822647-149.478854s261.937244 49.593452 362.521146 149.478854c99.885402 100.583902 149.478854 220.725784 149.478854 362.521146s-49.593452 261.937244-149.478854 361.822647z m-37.020464-626.553888c-9.080491-11.175989-18.859482-21.653479-28.638472-32.130969-82.42292-81.72442-180.911323-122.237381-296.86221-122.237381-101.282401 0-189.293315 31.432469-264.731241 93.598909-11.175989 9.080491-21.653479 18.859482-31.43247 28.638472-81.72442 82.42292-122.93588 180.911323-122.93588 296.86221s41.21146 214.439291 122.93588 296.163711 180.212824 122.93588 296.163711 122.93588 214.439291-41.21146 296.86221-122.93588c81.72442-81.72442 122.237381-180.212824 122.237381-296.163711 0-101.282401-31.432469-189.991814-93.598909-264.731241z m-92.900409 450.53206c-11.874488 0-23.748977-4.889495-32.829468-13.271487L531.557981 375.618008l-66.357435-65.658936-65.658936 65.658936-40.512961 41.21146a49.453752 49.453752 0 0 1-33.527967 13.271487 46.450205 46.450205 0 1 1-32.829468-78.930423l139.699864-139.699864a46.659754 46.659754 0 0 1 66.357435 0l278.701228 279.399728h0.698499a46.450205 46.450205 0 0 1-33.527967 78.930423z"  horiz-adv-x="1024" />
      
      <glyph glyph-name="a-ziyuan31" unicode="&#58996;" d="M874.521146 745.822647C773.937244 845.708049 653.795362 896 512 896h-8.381992C366.013643 893.904502 247.967258 844.31105 150.177353 745.822647c-15.366985-15.366985-29.336971-30.73397-42.608458-46.799455-21.653479-27.241473-39.814461-55.181446-54.482947-85.216916C17.462483 544.654843 0 467.819918 0 384c0-141.795362 50.291951-261.937244 150.177353-362.521146 99.885402-99.885402 220.725784-149.478854 361.822647-149.478854s261.937244 49.593452 362.521146 149.478854c99.885402 100.583902 149.478854 220.725784 149.478854 362.521146s-49.593452 261.937244-149.478854 361.822647z m-37.020464-626.553888c-9.080491-11.175989-18.859482-21.653479-28.638472-32.130969-82.42292-81.72442-180.911323-122.237381-296.86221-122.237381-101.282401 0-189.293315 31.432469-264.731241 93.598909-11.175989 9.080491-21.653479 18.859482-31.43247 28.638472-81.72442 82.42292-122.93588 180.911323-122.93588 296.86221s41.21146 214.439291 122.93588 296.163711 180.212824 122.93588 296.163711 122.93588 214.439291-41.21146 296.86221-122.93588c81.72442-81.72442 122.237381-180.212824 122.237381-296.163711 0-101.282401-31.432469-189.991814-93.598909-264.731241z"  horiz-adv-x="1024" />
      
      <glyph glyph-name="gonggao" unicode="&#58961;" d="M528.2 675.5c2 0 4.9-1.1 7.5-4.1 0-0.2 0.1-0.5 0.1-0.6v-576.3c0-1.7-2.5-4.4-6.2-4.4-1.3 0-2.1 0.1-2.4 0.2l-0.8 0.5-1.1 0.6-138.8 82c-30.8 18.4-64.5 27.7-100.1 27.7h-92.6c-38.1 0-69.1 29.4-69.1 65.5v227c0 29.9 26.5 54.2 59.1 54.2h79.9c35.4 0 70 9.7 100.2 28.1h0.2L510 665.5h0.1l14.5 8.9c1.3 0.7 2.4 1.1 3.6 1.1m0 60c-11.9 0-23.9-3.2-35-10h-0.1l-160.5-98.2c-20.8-12.7-44.6-19.3-69-19.3H183.8c-66.2 0-119.1-51.5-119.1-114.2v-227c0-69.2 57.9-125.5 129.1-125.5h92.6c24.8 0 47.9-6.4 69.5-19.3l138.9-82.1c10-6.5 21.5-9.7 34.7-9.7 36.4 0 66.2 29 66.2 64.4V670.8c0 11.2-3.3 24.2-10 33.8-13.9 19.8-35.5 30.9-57.5 30.9zM924.9 414.9H726.4c-18 0.2-32.8-14.2-33.1-32.2 0-17.7 14.9-32.2 33.1-32.2h198.5c18.2 0 33.1 14.5 33.1 32.2-0.3 18-15.1 32.4-33.1 32.2zM911.7 141.2l-172.1 96.5c-15.4 9.2-35.4 4.2-44.7-11.2-4.5-7.2-5.9-16-3.7-24.2s7.7-15.2 15.2-19.2l172.1-96.6c15.4-9.2 35.4-4.2 44.7 11.2 10 14.5 5 33.8-11.5 43.5zM738 527.5l172 96.6c16.6 9.6 21.5 28.9 11.6 43.5-9.9 16.1-29.7 20.9-44.7 11.2l-172.1-96.6c-16.5-9.7-21.5-29-11.6-43.5 10.1-14.4 29.9-20.8 44.8-11.2z"  horiz-adv-x="1024" />
      
      <glyph glyph-name="vuesax_linear_trash" unicode="&#58994;" d="M311.253745 726.206025c-44.412049-2.380067-88.776497-5.807363-133.188546-10.329491h-0.047601l-96.67832-9.472666a35.701004 35.701004 0 1 1 7.044999-71.021198l96.630717 9.472667h0.095203Q324.724924 658.945333 464.292049 658.945333q234.769803 0 472.919301-23.562663a35.701004 35.701004 0 0 1 7.140201 71.021198q-115.147639 11.424321-229.533656 17.374488a35.701004 35.701004 0 0 1-0.285608 1.76125l-10.329491 61.120119a303.030123 303.030123 0 0 1-7.378207 35.224991 102.628486 102.628486 0 0 1-20.27817 38.509483Q645.605548 896 575.203168 896H450.487661q-34.653775 0-58.549647-7.711417-26.180736-8.52064-42.412793-26.942358c-9.044254-10.186687-15.851246-22.991447-20.468576-38.366679-2.332466-7.80662-4.855337-19.706954-7.568612-35.748605l-10.234288-61.024916zM82.529312 698.454444H82.196103 82.529312z m366.054295 31.892897q-32.178505-0.190405-64.35701-1.094831l7.759018 46.173299c1.142432 6.949795 2.237263 12.80476 3.18929 17.469691a120.431387 120.431387 0 0 0 2.332466 9.567869 31.892897 31.892897 0 0 0 5.616958 11.70993q9.23466 10.472295 47.410933 10.472294h124.715508c25.22871 0 41.032354-3.665303 47.410933-11.04351a33.178133 33.178133 0 0 0 5.807363-12.09074c0.761621-2.522871 1.618446-6.092971 2.522871-10.6627 0.856824-4.331722 1.808851-9.61547 2.808479-15.708442v-0.238007l8.092228-47.791744a4818.350316 4818.350316 0 0 1-177.552994 3.284492H448.583607zM87.527452 643.427296l-0.761621-0.095202 0.761621 0.095202z m849.921905 0.047602l0.71402-0.047602-0.71402 0.047602z m6.092971 54.884343l0.761621-0.095202-0.761621 0.095202zM151.170442 517.807363a35.701004 35.701004 0 0 0 71.259205 4.664932l30.94087-478.869469v-0.190405c1.570844-22.515433 3.284492-38.366679 5.093343-47.553737 2.427668-11.995537 6.04537-21.182596 10.900707-27.418372 12.471551-16.327259 42.698401-24.467088 90.68055-24.467088h305.600595c47.934548 0 78.161398 8.139829 90.68055 24.467088 4.807735 6.235775 8.473038 15.422834 10.853106 27.418372a429.364076 429.364076 0 0 1 5.140944 47.553737v0.190405l30.94087 478.869469a35.701004 35.701004 0 1 0 71.259205-4.664932l-30.940871-479.012272v-0.190405c-1.808851-25.704723-3.90331-44.650056-6.378579-56.835999-4.61733-22.848643-12.709557-41.793975-24.276683-56.835998-13.947192-18.231313-33.320937-31.607289-58.073633-40.127929-23.610264-8.139829-53.313499-12.233544-89.204909-12.233544H360.045117q-53.837114 0-89.204909 12.233544-37.129044 12.80476-58.073633 40.127929c-11.614727 15.042023-19.659353 33.987356-24.276683 56.835998a489.96058 489.96058 0 0 0-6.378579 56.835999v0.190405l-30.940871 479.012272zM358.141063 360.484939c0-19.706954 15.99405-35.701004 35.701005-35.701004h238.006694a35.701004 35.701004 0 0 1 0 71.402008h-238.006694a35.701004 35.701004 0 0 1-35.701005-35.701004z m39.509112-190.405356c0-19.706954 15.99405-35.701004 35.701004-35.701004h158.512458a35.701004 35.701004 0 0 1 0 71.402009H433.351179a35.701004 35.701004 0 0 1-35.701004-35.701005z"  horiz-adv-x="1024" />
      
      <glyph glyph-name="wenhao" unicode="&#58906;" d="M512 814.592a422.4 422.4 0 1 1 422.4-422.4A422.4 422.4 0 0 1 512 814.592z m26.624-629.76a45.056 45.056 0 0 0-31.232-12.288 42.496 42.496 0 0 0-31.232 12.8 41.984 41.984 0 0 0-12.8 30.72 39.424 39.424 0 0 0 12.8 30.72 42.496 42.496 0 0 0 31.232 12.288 43.008 43.008 0 0 0 31.744-12.288 39.424 39.424 0 0 0 12.8-30.72 43.008 43.008 0 0 0-13.312-31.744z m87.04 235.52a617.472 617.472 0 0 0-51.2-47.104 93.184 93.184 0 0 1-25.088-31.232 80.896 80.896 0 0 1-9.728-39.936v-10.24h-64v10.24a119.808 119.808 0 0 0 12.288 57.344A311.296 311.296 0 0 0 555.52 435.2l10.24 11.264a71.168 71.168 0 0 1 16.896 44.032A69.632 69.632 0 0 1 563.2 537.6a69.632 69.632 0 0 1-51.2 17.92 67.072 67.072 0 0 1-58.88-26.112 102.4 102.4 0 0 1-16.384-61.44h-61.44a140.288 140.288 0 0 0 37.888 102.4 140.8 140.8 0 0 0 104.96 38.4 135.68 135.68 0 0 0 96.256-29.184 108.032 108.032 0 0 0 36.352-86.528 116.736 116.736 0 0 0-25.088-73.216z"  horiz-adv-x="1024" />
      
      <glyph glyph-name="beizhu" unicode="&#58991;" d="M341.333333 349.866667l-45.511111-170.666667c0-11.377778 0-22.755556 5.688889-28.444444 5.688889-5.688889 11.377778-5.688889 22.755556-5.688889h5.688889l164.977777 45.511111h5.688889l443.733334 449.422222c11.377778 11.377778 22.755556 34.133333 22.755555 51.2 0 22.755556-11.377778 45.511111-28.444444 62.577778l-39.822223 39.822222c-17.066667 17.066667-39.822222 28.444444-62.577777 28.444444-17.066667 0-39.822222-5.688889-51.2-22.755555L341.333333 349.866667z m557.511111 329.955555l-45.511111-45.511111-73.955555 73.955556 45.511111 45.511111c5.688889 5.688889 22.755556 5.688889 28.444444 0l39.822223-39.822222c5.688889-5.688889 5.688889-11.377778 5.688888-17.066667 5.688889-5.688889 5.688889-11.377778 0-17.066667zM420.977778 344.177778L739.555556 668.444444l73.955555-73.955555L494.933333 270.222222 420.977778 344.177778z m-62.577778-136.533334l22.755556 85.333334 62.577777-62.577778-85.333333-22.755556z m568.888889 295.822223c-17.066667 0-28.444444-11.377778-28.444445-28.444445V99.555556c0-56.888889-56.888889-85.333333-85.333333-85.333334H204.8c-39.822222 0-79.644444 39.822222-85.333333 108.088889V685.511111c0 91.022222 62.577778 85.333333 85.333333 85.333333h403.911111c17.066667 0 28.444444 11.377778 28.444445 28.444445s-11.377778 28.444444-28.444445 28.444444H199.111111c-51.2 0-142.222222-34.133333-142.222222-119.466666v-597.333334c0-119.466667 73.955556-164.977778 142.222222-164.977777h620.088889c79.644444 0 142.222222 51.2 142.222222 142.222222V463.644444c0 28.444444-17.066667 39.822222-34.133333 39.822223z"  horiz-adv-x="1024" />
      
      <glyph glyph-name="fenxiang" unicode="&#59193;" d="M768.73106 192.462288c-35.606921 0-67.945574-14.793214-91.167479-38.359147l-309.109357 171.670082c9.116748 17.545439 14.621199 37.155048 14.621199 58.312783 0 12.55703-2.408198 24.426004-5.676466 35.950949l304.63699 189.215522c22.705863-20.469679 52.464304-33.198723 85.146985-33.198723 70.525785 0 127.978498 57.452713 127.978498 127.978498S837.708718 832.010751 767.182933 832.010751s-127.978498-57.452713-127.978498-127.978498c0-14.621199 2.92424-28.382328 7.396607-41.455401L344.716278 475.253486c-23.049891 22.705863-54.700487 36.983034-89.791366 36.983034-70.525785 0-127.978498-57.452713-127.978498-127.978498s57.452713-127.978498 127.978498-127.978498c25.630102 0 49.540064 7.740635 69.493701 20.813707l321.150344-178.378633c-3.096254-11.008903-5.160423-22.18982-5.160423-34.058794 0-70.525785 57.452713-127.978498 127.978498-127.978498s127.978498 57.452713 127.978498 127.978498S839.256845 192.462288 768.73106 192.462288zM767.182933 768.021502c35.262893 0 63.989249-28.726356 63.989249-63.989249s-28.726356-63.989249-63.989249-63.989249-63.989249 28.726356-63.989249 63.989249S731.92004 768.021502 767.182933 768.021502zM191.107677 384.086007c0 35.262893 28.726356 63.989249 63.989249 63.989249s63.989249-28.726356 63.989249-63.989249-28.726356-63.989249-63.989249-63.989249S191.107677 348.823114 191.107677 384.086007zM768.73106 0.494541c-35.262893 0-63.989249 28.726356-63.989249 63.989249s28.726356 63.989249 63.989249 63.989249 63.989249-28.726356 63.989249-63.989249C832.720309 29.048883 803.993953 0.494541 768.73106 0.494541z"  horiz-adv-x="1024" />
      
      <glyph glyph-name="shuaxin1" unicode="&#60424;" d="M960 480V704l-73.056-73.056a447.712 447.712 0 0 1-373.6 201.088C265.92 832.032 65.312 631.456 65.312 384S265.92-64.032 513.344-64.032a448.064 448.064 0 0 1 415.232 279.488 38.368 38.368 0 1 1-71.136 28.896 371.36 371.36 0 0 0-344.096-231.584C308.32 12.768 142.112 178.976 142.112 384S308.32 755.232 513.344 755.232c132.448 0 251.936-70.08 318.016-179.84L736 480h224z"  horiz-adv-x="1024" />
      
      <glyph glyph-name="icon-" unicode="&#58912;" d="M573.44 256a187.68 187.68 0 0 0-132.8 55.36L416 336l45.28 45.28 24.64-24.64a124.32 124.32 0 0 1 170.08-5.76l1.44 1.28a49.44 49.44 0 0 1 4 3.84l101.28 101.28a124.16 124.16 0 0 1 0 176l-1.92 1.92a124.16 124.16 0 0 1-176 0l-51.68-51.68a49.44 49.44 0 0 1-3.84-4l-20-24.96-49.92 40L480 619.6800000000001a108.16 108.16 0 0 0 8.64 9.28l51.68 51.68a188.16 188.16 0 0 0 266.72 0l1.92-1.92a188.16 188.16 0 0 0 0-266.72l-101.28-101.28a112 112 0 0 0-8.48-7.84 190.24 190.24 0 0 0-125.28-48zM350.72 32a187.36 187.36 0 0 0-133.28 55.36l-1.92 1.92a188.16 188.16 0 0 0 0 266.72l101.28 101.28a112 112 0 0 0 8.48 7.84 188.32 188.32 0 0 0 258.08-7.84L608 432l-45.28-45.28-24.64 24.64A124.32 124.32 0 0 1 368 417.12l-1.44-1.28a49.44 49.44 0 0 1-4-3.84l-101.28-101.28a124.16 124.16 0 0 1 0-176l1.92-1.92a124.16 124.16 0 0 1 176 0l51.68 51.68a49.44 49.44 0 0 1 3.84 4l20 24.96 50.08-40-20.8-25.12a108.16 108.16 0 0 0-8.64-9.28l-51.68-51.68A187.36 187.36 0 0 0 350.72 32z"  horiz-adv-x="1024" />
      
      <glyph glyph-name="yunfei" unicode="&#59195;" d="M900.489 138.904h-62.736c-11.95 50.786-59.748 89.622-116.509 89.622s-101.572-38.836-116.509-89.622H416.527c-11.95 50.786-59.748 89.622-116.509 89.622s-101.572-38.836-116.509-89.622h-59.748V398.81l107.547 188.207h131.446v-149.371h-89.622v-59.748h119.497c17.925 0 29.874 11.95 29.874 29.874V706.514h209.119v59.748h-209.12c-32.862 0-59.748-26.887-59.748-59.748v-59.748H231.308c-20.912 0-41.824-11.95-53.773-29.874L67 422.709c-2.987-5.975-2.987-8.962-2.987-14.937v-268.868c0-32.862 26.887-59.748 59.748-59.748h62.736c11.95-50.786 59.748-89.622 116.509-89.622s101.572 38.836 116.509 89.622h188.207c11.95-50.786 59.748-89.622 116.509-89.622s101.572 38.836 116.509 89.622h59.748c32.862 0 59.748 26.887 59.748 59.748v209.12h-59.748v-209.12z m-597.483-89.622c-32.862 0-59.748 26.887-59.748 59.748 0 32.862 26.887 59.748 59.748 59.748s59.748-26.887 59.748-59.748-26.887-59.748-59.748-59.748z m418.238 0c-32.862 0-59.748 26.887-59.748 59.748 0 32.862 26.887 59.748 59.748 59.748 32.862 0 59.748-26.887 59.748-59.748s-26.886-59.748-59.748-59.748zM960.237 587.017v59.748H852.69l89.622 89.623-41.824 41.824-89.622-89.623-89.623 89.623-41.824-41.824 89.622-89.623H661.496v-59.748h119.497v-59.748H661.496v-59.748h119.497v-119.497h59.748V467.52h119.497v59.748H840.741v59.748h119.496z"  horiz-adv-x="1024" />
      
      <glyph glyph-name="xuanze" unicode="&#58892;" d="M874.069333 257.28L512-104.789333 149.930667 257.28zM874.069333 469.333333L512 831.402667 149.930667 469.333333z"  horiz-adv-x="1024" />
      
      <glyph glyph-name="discord" unicode="&#58948;" d="M866.858667 704.341333c-65.28 29.44-135.253333 51.2-208.426667 63.573334a3.2 3.2 0 0 1-3.370667-1.536c-8.96-15.744-18.944-36.266667-25.941333-52.48a792.149333 792.149333 0 0 1-234.112 0 527.317333 527.317333 0 0 1-26.325333 52.48A3.285333 3.285333 0 0 1 365.312 768c-73.130667-12.373333-143.104-34.133333-208.426667-63.616a2.986667 2.986667 0 0 1-1.365333-1.152C22.741333 508.032-13.653333 317.653333 4.224 129.664a3.413333 3.413333 0 0 1 1.322667-2.346667 854.656 854.656 0 0 1 255.701333-127.146666 3.328 3.328 0 0 1 3.584 1.109333 590.08 590.08 0 0 1 52.309333 83.754667 3.157333 3.157333 0 0 1-1.749333 4.437333 563.2 563.2 0 0 0-79.872 37.461333 3.242667 3.242667 0 0 0-1.621333 2.56 3.2 3.2 0 0 0 1.28 2.773334c5.376 3.968 10.752 8.106667 15.872 12.245333a3.2 3.2 0 0 0 3.328 0.426667c167.552-75.264 349.013333-75.264 514.602666 0a3.157333 3.157333 0 0 0 3.370667-0.384c5.12-4.181333 10.453333-8.32 15.872-12.288a3.2 3.2 0 0 0 0.853333-4.266667 3.2 3.2 0 0 0-1.109333-1.066667c-25.514667-14.677333-52.053333-27.093333-79.914667-37.418666a3.2 3.2 0 0 1-1.749333-4.48c15.36-29.312 32.938667-57.216 52.266667-83.712a3.285333 3.285333 0 0 1 3.584-1.194667 851.797333 851.797333 0 0 1 256.085333 127.189333 3.2 3.2 0 0 1 1.365333 2.304c21.333333 217.344-35.754667 406.186667-151.424 573.525334a2.56 2.56 0 0 1-1.322666 1.194666zM342.186667 244.138667c-50.432 0-92.032 45.610667-92.032 101.546666 0 55.978667 40.789333 101.546667 92.032 101.546667 51.626667 0 92.842667-45.952 92.032-101.546667 0-55.978667-40.789333-101.546667-92.032-101.546666z m340.266666 0c-50.474667 0-92.032 45.610667-92.032 101.546666 0 55.978667 40.746667 101.546667 92.032 101.546667 51.626667 0 92.842667-45.952 92.032-101.546667 0-55.978667-40.362667-101.546667-92.032-101.546666z"  horiz-adv-x="1024" />
      
      <glyph glyph-name="wangluo" unicode="&#58936;" d="M511.219007 752.889063c-203.578862 0-369.409725-165.570532-369.409725-369.409725 0-203.578862 165.570532-369.409725 369.409725-369.409725s369.409725 165.570532 369.409725 369.409725c0 203.839193-165.830863 369.409725-369.409725 369.409725z m0-673.476363c-29.677737 0-68.727391 59.095143-89.293542 159.582919l178.326753-0.260331c-20.30582-100.227445-59.355474-159.322588-89.033211-159.322588z m-98.92579 224.665675c-2.60331 24.991778-3.904965 51.545543-3.904965 79.661294 0 29.417406 1.561986 57.272826 4.425627 83.305928l197.330918-0.260331c2.863641-25.772772 4.165296-53.628191 4.165296-83.045597 0-28.376082-1.301655-54.929846-3.904965-79.921625l-198.111911 0.260331z m98.92579 383.727932c29.417406 0 67.946398-58.053819 88.512549-156.198616l-177.025098 0.260332c20.566151 98.144797 59.355474 155.938284 88.512549 155.938284z m164.008546-221.281372l128.863858-0.260331c7.5496-26.293434 11.454565-54.148853 11.454565-82.785266 0-27.85542-3.644634-54.669515-10.673572-80.181956l-129.124189 0.260331c2.342979 26.033103 3.644634 52.847198 3.644634 79.921625 0 28.376082-1.561986 56.231501-4.165296 83.045597z m101.789431 64.822425l-110.901017 0.260331c-7.028938 37.487668-16.661186 72.111694-28.896744 102.310094-4.685958 11.975227-9.892579 22.90913-15.35953 33.06204 66.124081-25.772772 121.053927-74.194342 155.157291-135.632465z m-376.438663 135.632465c-5.466952-10.15291-10.413241-21.347144-15.35953-33.06204-12.235558-30.198399-21.867806-64.562094-28.896744-102.049762l-110.640686 0.260331c34.363695 60.91746 89.033211 109.0787 154.89696 134.851471z m-181.971387-199.934228l128.603527-0.260331c-2.60331-27.074427-3.904965-54.929846-3.904966-83.305928 0-27.074427 1.301655-53.628191 3.644635-79.661294l-127.562203 0.260331v-6.247944c-8.070262 27.074427-12.235558 55.971171-12.235558 85.648907-0.260331 29.157075 3.904965 57.012495 11.454565 83.566259z m24.991779-227.789647l112.202672-0.260331c7.028938-38.789323 16.921517-74.454673 29.417406-105.694397 4.685958-11.975227 9.892579-22.90913 15.35953-33.06204-67.165405 26.293434-122.876244 76.016659-156.979608 139.016768zM621.859693 100.239182c5.466952 10.15291 10.413241 21.347144 15.35953 33.06204 12.495889 30.979392 22.388468 66.644743 29.417406 105.173735l111.942341-0.260331c-34.103364-62.479446-89.553873-111.68201-156.719277-137.975444z"  horiz-adv-x="1024" />
      
      <glyph glyph-name="qianbao" unicode="&#58944;" d="M0 37.16129V730.83871a165.16129 165.16129 0 0 0 165.16129 165.16129h1222.193549a165.16129 165.16129 0 0 0 165.16129-165.16129v-693.67742a165.16129 165.16129 0 0 0-165.16129-165.16129H165.16129a165.16129 165.16129 0 0 0-165.16129 165.16129zM999.688258 208.664774c0-6.705548-1.123097-12.948645-3.435355-18.762322a46.476387 46.476387 0 0 0-24.576-25.633033c-5.615484-2.477419-11.792516-3.699613-18.498064-3.699613H569.476129a50.209032 50.209032 0 0 0-45.716645 29.332646 44.791742 44.791742 0 0 0-3.963871 18.762322v263.729549c0 13.378065 4.690581 24.774194 14.005677 34.08929a46.410323 46.410323 0 0 0 34.089291 14.005677h383.702709c13.411097 0 24.774194-4.657548 34.089291-14.005677 9.348129-9.348129 14.005677-20.711226 14.005677-34.08929V400.516129h-119.973161c-13.378065 0-24.741161-4.591484-34.089291-13.741419a45.551484 45.551484 0 0 1-14.005677-33.825033c0.363355-9.149935 2.312258-17.275871 5.813677-24.311742 2.840774-5.978839 7.498323-11.462194 14.005678-16.384 6.540387-4.954839 15.954581-7.399226 28.275613-7.399225h119.973161v-96.189936z m-71.878193 336.136258h-239.946323c19.026581 9.876645 36.996129 19.389935 53.908645 28.539871 14.798452 7.762581 29.431742 15.525161 43.866839 23.25471 14.468129 7.762581 25.732129 13.741419 33.825032 17.969548 12.354065 6.705548 23.353806 9.777548 33.032258 9.249033 9.711484-0.528516 17.903484-2.213161 24.576-5.020904 7.762581-3.864774 14.468129-8.984774 20.083613-15.326967l30.653936-58.665291z m-71.878194-191.851355c0 6.705548 2.312258 12.321032 6.87071 16.912517a22.990452 22.990452 0 0 0 16.912516 6.870709c6.705548 0 12.354065-2.312258 16.912516-6.870709 4.591484-4.591484 6.87071-10.24 6.87071-16.912517 0-6.705548-2.279226-12.420129-6.87071-17.176774a22.561032 22.561032 0 0 0-16.912516-7.134968 22.561032 22.561032 0 0 0-16.912516 7.134968 23.882323 23.882323 0 0 0-6.87071 17.176774zM0 730.83871v-693.67742a165.16129 165.16129 0 0 1 165.16129-165.16129h1222.193549a165.16129 165.16129 0 0 1 165.16129 165.16129V730.83871a165.16129 165.16129 0 0 1-165.16129 165.16129H165.16129a165.16129 165.16129 0 0 1-165.16129-165.16129z m165.16129-848.929033A155.251613 155.251613 0 0 0 9.909677 37.16129V730.83871A155.251613 155.251613 0 0 0 165.16129 886.090323h1222.193549A155.251613 155.251613 0 0 0 1542.606452 730.83871v-693.67742a155.251613 155.251613 0 0 0-155.251613-155.251613H165.16129z"  horiz-adv-x="1552" />
      
      <glyph glyph-name="a-fenzu142" unicode="&#58993;" d="M1022.805333 807.125333a49.322667 49.322667 0 0 1-44.373333 44.501334c-76.288 8.96-149.077333-17.792-202.325333-71.253334l-145.536-146.048-303.530667 133.589334c-26.624 12.458667-58.538667 5.333333-78.08-14.250667L195.712 700.245333c-3.541333-3.584-7.082667-7.125333-8.874667-12.501333-10.666667-16-14.208-35.626667-8.874666-53.418667 3.541333-17.834667 15.957333-33.834667 31.957333-44.544l232.533333-147.84L298.666667 297.642667l-88.746667 42.752c-23.082667 7.125333-46.165333 3.584-60.373333-10.666667l-49.664-49.92c-10.666667-10.666667-16-23.125333-14.208-37.376 1.749333-14.250667 8.874667-26.709333 19.498666-35.626667l150.869334-114.005333a13.909333 13.909333 0 0 0 7.125333-7.125333l113.578667-151.424c8.874667-10.666667 21.333333-17.792 35.498666-19.584h3.541334c12.458667 0 24.874667 5.333333 33.706666 14.250666l49.706667 49.877334a49.066667 49.066667 0 0 1 8.917333 55.210666l-42.624 89.088 143.786667 144.256 147.285333-233.344c3.584-3.541333 5.333333-8.917333 8.874667-12.458666a69.973333 69.973333 0 0 1 49.706667-21.376 69.973333 69.973333 0 0 1 49.706666 21.376l53.248 53.461333c21.333333 21.333333 26.624 51.626667 14.208 78.378667l-133.12 304.597333 147.285334 147.84c58.581333 51.626667 83.456 126.464 76.373333 201.301333zM241.92 648.533333l53.248 53.418667 280.405333-122.88-40.832-40.96-46.122666-46.336-246.698667 156.757333z m509.397333-245.802666l122.453334-279.68-53.248-53.461334-156.16 245.845334 44.373333 44.501333 42.581333 42.794667z m23.04 124.672l-163.285333-163.882667-227.157333-228.010667 56.746666-119.338666-19.498666-19.626667-97.621334 131.84a61.312 61.312 0 0 1-21.290666 21.376l-131.328 97.962667 19.498666 19.626666L309.333333 210.346667l188.16 190.634666 200.533334 201.258667 126.037333 126.506667c33.706667 33.834667 79.872 53.418667 127.786667 51.626666a179.669333 179.669333 0 0 0-51.456-126.464l-126.037334-126.464z"  horiz-adv-x="1024" />
      
      <glyph glyph-name="tijiaodingdan" unicode="&#58987;" d="M800.042667-32H224A96 96 0 0 0 128 64V703.872a96 96 0 0 0 96 96h575.872a96 96 0 0 0 96-96V64a96 96 0 0 0-95.829333-96zM224 736a32.170667 32.170667 0 0 1-32-31.957333v-639.914667c0-17.706667 14.421333-32 32-32h575.872c17.749333 0 32 14.293333 32 32V704.042667a32.042667 32.042667 0 0 1-32 32H224zM640.938667 351.232H287.786667a31.914667 31.914667 0 0 0-32 32c0 17.706667 14.293333 32 32 32h353.152c17.706667 0 32-14.293333 32-32s-14.293333-32-32-32zM734.805333 160.469333H287.573333a31.914667 31.914667 0 0 0-32 32c0 17.706667 14.293333 32 32 32h447.232c17.706667 0 32-14.293333 32-32s-14.293333-32-32-32zM255.786667 590.677333a48 48 0 1 1 96 0 48 48 0 0 1-96 0zM463.104 590.677333a48 48 0 1 1 96 0 48 48 0 0 1-96 0zM671.189333 590.677333a48 48 0 1 1 96.042667 0.042667 48 48 0 0 1-96-0.042667z"  horiz-adv-x="1024" />
      
      <glyph glyph-name="a-fenzu10" unicode="&#58988;" d="M800.426667 754.261333H186.581333a125.141333 125.141333 0 0 1-125.013333-125.013333v-515.669333a125.141333 125.141333 0 0 1 125.013333-125.013334h613.888a125.141333 125.141333 0 0 1 125.013334 125.013334V629.333333a125.141333 125.141333 0 0 1-125.013334 125.013334zM124.117333 441.301333h360.874667c42.794667 0 77.653333-34.858667 77.653333-77.696s-34.858667-77.696-77.653333-77.696H124.074667v155.349334z m738.858667-327.68c0-34.474667-28.032-62.506667-62.506667-62.506666H186.581333a62.592 62.592 0 0 0-62.506666 62.506666v109.781334h360.832a140.373333 140.373333 0 0 1 140.202666 140.202666 140.373333 140.373333 0 0 1-140.16 140.16H124.074667V629.333333c0 34.432 28.032 62.464 62.506666 62.464h613.888c34.432 0 62.464-28.032 62.464-62.464v-515.669333zM426.922667 363.605333a45.397333 45.397333 0 0 1 3.328-16.810666 50.389333 50.389333 0 0 1 4.053333-7.594667 41.045333 41.045333 0 0 1 7.04-8.106667 42.965333 42.965333 0 0 1 16.768-9.514666 44.245333 44.245333 0 0 1 37.12 5.546666 38.528 38.528 0 0 1 6.656 5.418667 42.752 42.752 0 0 1 9.557333 14.250667 47.829333 47.829333 0 0 1 2.858667 10.368 45.141333 45.141333 0 0 1-1.408 19.2 49.92 49.92 0 0 1-3.328 7.978666 47.317333 47.317333 0 0 1-6.186667 8.789334 42.752 42.752 0 0 1-15.744 11.093333 50.005333 50.005333 0 0 1-8.234666 2.474667 40.96 40.96 0 0 1-10.709334 0.768 45.525333 45.525333 0 0 1-14.677333-3.285334 45.312 45.312 0 0 1-14.250667-9.514666 42.752 42.752 0 0 1-9.514666-14.250667 50.005333 50.005333 0 0 1-2.474667-8.234667 45.098667 45.098667 0 0 1-0.853333-8.533333z"  horiz-adv-x="1024" />
      
      <glyph glyph-name="a-fenzu11" unicode="&#58989;" d="M259.157333 705.621333H211.754667c-34.773333 0-63.232-28.032-63.232-62.336v-561.237333c0-34.304 28.458667-62.336 63.232-62.336h600.490666c34.773333 0 63.232 28.032 63.232 62.336V643.285333c0 34.304-28.458667 62.336-63.232 62.336h-47.402666v-280.618666c0-34.261333-28.458667-62.336-63.232-62.336H322.389333a62.976 62.976 0 0 0-63.232 62.336V705.621333zM211.754667 768h600.490666C881.792 768 938.666667 711.893333 938.666667 643.285333v-561.237333C938.666667 13.44 881.792-42.666667 812.245333-42.666667H211.754667C142.208-42.666667 85.333333 13.44 85.333333 82.048V643.285333C85.333333 711.893333 142.208 768 211.754667 768z m110.634666-342.997333h379.221334V705.621333H322.389333v-280.618666z m284.416 218.282666c17.408 0 31.616-14.037333 31.616-31.146666v-93.568c0-17.152-14.208-31.146667-31.573333-31.146667a31.488 31.488 0 0 0-31.658667 31.146667V612.096c0 17.152 14.250667 31.146667 31.616 31.146667z"  horiz-adv-x="1024" />
      
      <glyph glyph-name="a-fenzu121" unicode="&#58990;" d="M924.032 667.008l-381.226667 138.325333a90.88 90.88 0 0 1-61.610666-0.085333l-381.44-139.050667A85.717333 85.717333 0 0 1 42.666667 586.069333v-385.962666c0-31.573333 17.792-60.501333 46.378666-75.392l382.805334-199.893334a90.154667 90.154667 0 0 1 80.938666-1.152l379.861334 184.661334A85.461333 85.461333 0 0 1 981.333333 184.874667v401.92c0 35.754667-22.826667 67.754667-57.301333 80.213333zM501.76 751.829333a31.061333 31.061333 0 0 0 20.565333 0l335.104-121.557333a10.581333 10.581333 0 0 0-0.085333-20.053333l-106.965333-37.248a15.317333 15.317333 0 0 0-10.538667 0.298666L402.346667 708.949333a3.498667 3.498667 0 0 0 0.128 6.613334l99.242666 36.266666z m-19.072-732.074666c0-16.213333-17.749333-26.453333-32.426667-18.816l-333.397333 174.08a28.416 28.416 0 0 0-15.488 25.088V541.994667c0 14.762667 15.018667 25.130667 29.44 20.138666l322.730667-112.042666c17.493333-6.058667 29.269333-22.186667 29.269333-40.277334v-390.058666h-0.085333zM482.389333 500.48L167.594667 609.877333a10.581333 10.581333 0 0 0-0.170667 20.053334l140.416 51.242666a14.848 14.848 0 0 0 10.752-0.170666l335.232-134.826667c3.114667-1.28 2.986667-5.546667-0.213333-6.698667l-112.085334-38.954666a89.685333 89.685333 0 0 0-59.136 0z m440.277334-315.648a28.245333 28.245333 0 0 0-16.213334-25.472l-333.312-162.048c-14.592-7.125333-31.786667 3.242667-31.786666 19.2v393.173333c0 18.090667 11.690667 34.218667 29.226666 40.277334l127.232 44.202666a3.626667 3.626667 0 0 0 4.864-3.413333v-176.170667c0-5.248 5.76-8.746667 10.624-6.4l39.978667 19.413334a14.250667 14.250667 0 0 1 8.064 12.757333V506.154667c0 6.058667 3.925333 11.392 9.685333 13.44l122.197334 42.410666c14.293333 4.992 29.44-5.333333 29.44-20.138666v-356.992z"  horiz-adv-x="1024" />
      
      <glyph glyph-name="a-huaban12" unicode="&#58986;" d="M749.226667-63.530667H274.773333c-51.882667 0-99.413333 40.064-108.288 91.178667l-68.48 414.933333a87.594667 87.594667 0 0 0 18.56 71.466667c16.213333 19.285333 40.832 30.336 67.413334 30.336H840.106667c26.666667 0 51.242667-11.093333 67.498666-30.378667 16.213333-19.285333 22.954667-45.44 18.346667-71.68L857.6 27.904c-8.917333-51.370667-56.448-91.434667-108.330667-91.434667zM183.978667 480.469333a23.552 23.552 0 0 1-18.56-7.594666 23.808 23.808 0 0 1-4.394667-19.712l68.522667-414.890667c3.413333-20.053333 24.618667-37.888 45.226666-37.888h474.453334c20.650667 0 41.813333 17.877333 45.354666 38.144l68.394667 414.421333c1.408 7.978667-0.128 14.933333-4.266667 19.882667a23.722667 23.722667 0 0 1-18.602666 7.637333H183.978667z m134.442666-191.829333a64 64 0 0 0-63.914666 63.872 64 64 0 0 0 63.914666 63.914667 64 64 0 0 0 63.872-63.914667 64 64 0 0 0-63.872-63.872z m0 63.872h-0.085333l0.042667-31.914667 0.042666 31.914667z m385.28-63.872a64 64 0 0 0-63.914666 63.872 64 64 0 0 0 63.914666 63.914667 64 64 0 0 0 63.914667-63.914667 64 64 0 0 0-63.914667-63.872z m0 63.872v-31.914667 31.914667z m32 223.018667a31.957333 31.957333 0 0 0-32 31.957333c0 91.434667-102.058667 159.744-193.365333 159.744-93.397333 0-190.037333-59.605333-190.037333-159.36a32 32 0 0 0-63.914667 0c0 139.733333 129.152 223.274667 253.994667 223.274667 121.685333 0 257.28-91.861333 257.28-223.658667a32 32 0 0 0-32-32z"  horiz-adv-x="1024" />
      
      <glyph glyph-name="a-lujingbiankuang" unicode="&#58985;" d="M893.41306 572.884969L785.977313 680.320717 662.062698 804.235331h-0.080779a53.717874 53.717874 0 0 0 75.932033 76.012811l322.953473-322.953473 0.161558-0.161558a53.717874 53.717874 0 0 0-37.966017-91.68389h-969.345092a53.717874 53.717874 0 1 0 0 107.435748H893.41306zM204.935708 196.213622l107.435748-107.435748L436.205292-35.13674a53.717874 53.717874 0 1 0-75.932033-76.012811l-323.11503 323.115031a53.717874 53.717874 0 0 0 37.966016 91.68389h969.345092a53.717874 53.717874 0 0 0 0-107.435748H204.935708z"  horiz-adv-x="1099" />
      
      </font>
</defs>
</svg>
